<?xml version="1.0" standalone="no"?>
<!DOCTYPE svg PUBLIC "-//W3C//DTD SVG 1.1//EN" "http://www.w3.org/Graphics/SVG/1.1/DTD/svg11.dtd" >
<svg xmlns="http://www.w3.org/2000/svg">
<metadata>Generated by IcoMoon</metadata>
<defs>
<font id="icomoon" horiz-adv-x="1024">
<font-face units-per-em="1024" ascent="960" descent="-64" />
<missing-glyph horiz-adv-x="1024" />
<glyph unicode="&#x20;" horiz-adv-x="512" d="" />
<glyph unicode="&#xe900;" glyph-name="minus-circle" d="M512 959.978c282.292 0 511.974-229.674 511.974-511.956s-229.682-511.993-511.974-511.993c-282.292 0-511.974 229.71-511.974 511.993s229.682 511.956 511.974 511.956zM512 846.222c-219.563 0-398.215-178.644-398.215-398.2s178.65-398.2 398.215-398.2c219.563 0 398.215 178.644 398.215 398.2s-178.65 398.2-398.215 398.2zM682.669 504.929v-113.792h-341.353v113.792h341.353z" />
<glyph unicode="&#xe901;" glyph-name="plus-circle" d="M511.973 959.996c282.326 0 512.006-229.68 512.006-511.969s-229.68-512.006-512.006-512.006c-282.288 0-511.969 229.716-511.969 512.006s229.68 511.969 511.969 511.969zM511.973 846.237c-219.561 0-398.21-178.648-398.21-398.21s178.648-398.21 398.21-398.21c219.599 0 398.21 178.648 398.21 398.21s-178.611 398.21-398.21 398.21zM568.864 618.687v-113.795h113.795v-113.759h-113.795v-113.795h-113.759v113.795h-113.795v113.759h113.795v113.795h113.759z" />
<glyph unicode="&#xe902;" glyph-name="add-user" d="M439.801 846.206c63.285-0.777 102.187-54.637 133.202-80.717 32.138-27.010 17.752-72.69 22.965-128.153 2.409-25.759 18.412-7.217 28.838-41.316 7.886-25.695-1.749-94.022-22.701-117.856-20.622-23.481-19.005-89.595-52.693-114.68-35.933-26.721-58.403-6.672-3.3-114.552 27.782-54.437 209.786-34.677 245.618-82.281 24.402-32.335 27.113-99.52 27.414-114.052l0.037-2.811h-819.18l0.047 2.811c0.319 14.53 3.004 81.717 27.406 114.052 35.833 47.604 217.836 27.845 245.618 82.217 55.136 107.944 32.599 87.895-3.3 114.616-33.689 25.085-32.071 91.199-52.693 114.68-20.92 23.834-30.587 92.162-22.701 117.856 10.426 34.099 26.43 15.558 28.838 41.316 5.247 55.464 4.323 200.907 140.858 186.729 28.673 16.008 53.684 22.39 75.725 22.142zM921.594 597.327v-99.571h102.386v-99.571h-102.386v-99.539h-102.418v99.539h-102.386v99.571h102.386v99.571h102.418z" />
<glyph unicode="&#xe903;" glyph-name="alarm-clock" d="M569.156 959.974v-117.716c225.22-28.155 400.12-219.52 400.12-451.137 0-250.937-205.143-455.096-457.289-455.096s-457.289 204.159-457.289 455.096c0 231.617 174.938 422.982 400.156 451.137v0 117.716h114.305zM511.985 732.426c-189.119 0-342.949-153.129-342.949-341.303 0-188.212 153.829-341.341 342.949-341.341s342.986 153.129 342.986 341.341c0 188.176-153.867 341.303-342.986 341.303zM569.149 618.637v-170.652h114.341v-113.756h-228.645v284.408h114.305zM114.33 957.514l80.819-80.432-114.305-113.792-80.819 80.468 114.305 113.756zM909.633 957.506l114.341-113.756-80.819-80.432-114.341 113.756 80.819 80.432z" />
<glyph unicode="&#xe904;" glyph-name="alert" d="M993.638 223.669l-338.226 601.243c-36.311 64.533-87.244 100.044-143.416 100.044-56.222 0-107.155-35.511-143.461-100.044l-338.179-601.243c-36.133-64.266-40.133-126.804-11.288-176.172 28.845-49.288 85.377-76.445 159.106-76.445h667.644c73.778 0 130.264 27.155 159.106 76.445 28.845 49.333 24.844 111.91-11.288 176.172h0.004zM937.016 87.272c-13.956-23.822-47.155-37.423-91.155-37.423h-667.644c-44 0-77.245 13.689-91.155 37.423-13.956 23.867-9.556 59.511 11.955 97.823l338.179 601.243c21.467 38.090 48.71 59.911 74.844 59.911s53.378-21.822 74.755-59.911l338.179-601.243c21.555-38.311 25.91-73.956 12.045-97.823h-0.005zM511.997 252.511c-28.622 0-51.822-23.2-51.822-51.822 0-28.666 23.2-51.91 51.822-51.91 28.666 0 51.867 23.2 51.867 51.91 0 28.577-23.2 51.822-51.867 51.822zM511.997 628.158c-28.622 0-51.822-23.2-51.822-51.822 0-1.556 0.311-2.933 0.399-4.4h-0.266l20.666-251.151h0.178c1.333-15.91 14.577-28.532 30.843-28.532 16.311 0 29.512 12.578 30.888 28.532h0.178l20.666 251.151h-0.266c0.133 1.467 0.399 2.845 0.399 4.4 0 28.577-23.2 51.822-51.867 51.822h0.001z" />
<glyph unicode="&#xe905;" glyph-name="minus" d="M1023.972 388.492h-1023.945v119.033h1023.945v-119.033z" />
<glyph unicode="&#xe906;" glyph-name="x-twitter" horiz-adv-x="1001" d="M596.009 526.629l372.819 433.371h-88.346l-323.718-376.29-258.553 376.29h-298.21l390.983-569.018-390.983-454.457h88.351l341.855 397.375 273.051-397.375h298.21l-405.458 590.103zM475 385.969l-354.815 507.521h135.702l624.636-893.48h-135.702l-269.821 385.959z" />
<glyph unicode="&#xe907;" glyph-name="groups" d="M34.030 239.451c-9.635 0-17.714 3.262-24.238 9.786-6.516 6.517-9.774 14.591-9.774 24.226v6.179c0 28.585 15.274 52.307 45.822 71.165 30.556 18.85 69.882 28.275 117.977 28.275 7.098 0 14.704-0.341 22.818-1.023 8.122-0.692 16.748-1.812 25.879-3.363-7.284-12.706-12.598-25.743-15.941-39.109-3.336-13.366-5.004-26.762-5.004-40.191v-55.946h-157.539zM317.237 239.451c-11.047 0-20.134 3.603-27.263 10.809s-10.693 16.135-10.693 26.786v14.766c0 18.757 5.446 35.905 16.337 51.442 10.891 15.531 26.956 28.966 48.196 40.308 21.247 11.333 45.998 19.835 74.25 25.507s59.444 8.506 93.576 8.506c34.791 0 66.313-2.835 94.565-8.506s53.002-14.174 74.249-25.507c21.24-11.342 37.262-24.777 48.068-40.308 10.797-15.538 16.197-32.686 16.197-51.442v-14.766c0-10.65-3.603-19.579-10.809-26.786s-16.135-10.809-26.786-10.809h-389.885zM832.426 239.451v55.818c0 14.886-1.625 28.861-4.869 41.924-3.251 13.071-8.128 25.572-14.63 37.503 9.72 1.551 18.448 2.672 26.184 3.363 7.719 0.683 15.046 1.023 21.966 1.023 48.091 0 87.272-9.383 117.524-28.148s45.382-42.53 45.382-71.294v-6.179c0-9.635-3.26-17.709-9.779-24.226-6.528-6.523-14.605-9.786-24.234-9.786h-157.545zM327.162 285.994h369.941v9.844c-1.791 22.085-19.89 40.136-54.293 54.154-34.396 14.025-78 21.038-130.812 21.038s-96.415-7.012-130.81-21.038c-34.404-14.018-52.412-32.068-54.026-54.154v-9.844zM163.573 422.949c-18.276 0-33.845 6.485-46.707 19.455-12.854 12.97-19.281 28.562-19.281 46.776 0 18.020 6.485 33.414 19.456 46.183s28.562 19.153 46.776 19.153c18.020 0 33.566-6.385 46.637-19.153 13.063-12.769 19.595-28.251 19.595-46.45 0-17.663-6.368-33.074-19.107-46.23-12.746-13.156-28.535-19.734-47.37-19.734zM861.078 422.949c-17.839 0-33.345 6.578-46.499 19.734s-19.732 28.567-19.732 46.23c0 18.199 6.577 33.682 19.732 46.45s28.718 19.153 46.674 19.153c18.498 0 34.137-6.385 46.9-19.153 12.771-12.769 19.157-28.162 19.157-46.183 0-18.214-6.343-33.807-19.040-46.776s-28.427-19.455-47.191-19.455zM512.313 452.481c-28.252 0-52.373 9.921-72.364 29.765-19.99 19.835-29.986 43.925-29.986 72.271 0 28.911 9.917 53.145 29.752 72.701 19.844 19.565 43.938 29.345 72.282 29.345 28.911 0 53.146-9.751 72.702-29.253 19.556-19.494 29.335-43.654 29.335-72.48 0-28.252-9.748-52.374-29.241-72.364s-43.654-29.986-72.481-29.986zM512.442 499.025c15.282 0 28.274 5.505 38.98 16.511 10.712 11.016 16.070 24.161 16.070 39.434s-5.318 28.268-15.953 38.981c-10.635 10.712-23.815 16.068-39.54 16.068-14.98 0-27.973-5.322-38.98-15.965-11.008-10.635-16.511-23.815-16.511-39.539 0-14.972 5.503-27.966 16.511-38.981 11.007-11.007 24.149-16.511 39.423-16.511z" />
<glyph unicode="&#xe908;" glyph-name="fitness-tracker" d="M424.475-63.991c-10.354 0-19.598 3.005-27.733 9.028-8.134 6.012-13.733 14.092-16.796 24.219l-46.704 156.787c-14.952 8.6-26.822 20.485-35.611 35.655s-13.184 32.203-13.184 51.099v470.404c0 19.114 4.575 36.257 13.724 51.426 9.158 15.17 21.214 27.059 36.166 35.669l45.61 156.44c3.063 10.136 8.661 18.209 16.796 24.219 8.134 6.021 17.38 9.032 27.733 9.032h175.043c10.354 0 19.541-3.063 27.562-9.188s13.569-14.26 16.641-24.405l44.187-154.677c15.901-8.828 28.482-20.826 37.746-35.997s13.894-32.678 13.894-52.521v-470.404c0-19.845-4.575-37.351-13.724-52.521-9.158-15.17-21.688-27.169-37.588-35.997l-44.187-154.677c-3.063-10.148-8.661-18.278-16.796-24.402s-17.38-9.19-27.733-9.19h-175.043zM430.719-7.107h161.134l31.287 114.869h-224.806l32.383-114.869zM387.285 164.654h249.424c13.208 0 24.167 4.357 32.882 13.070s13.070 19.674 13.070 32.881v474.784c0 13.208-4.357 24.167-13.070 32.882s-19.674 13.070-32.882 13.070h-249.424c-13.208 0-24.167-4.357-32.882-13.070s-13.069-19.674-13.069-32.882v-474.784c0-13.206 4.356-24.167 13.069-32.881s19.674-13.070 32.882-13.070zM399.43 788.228h222.615l-30.193 114.871h-161.134l-31.289-114.871z" />
<glyph unicode="&#xe909;" glyph-name="arrow-down-left" d="M0.431 906.511l152.464-0.070-0.312-710.049 763.601 763.601 107.801-107.801-763.601-763.601 710.014 0.348 0.070-152.464-970.451-0.451z" />
<glyph unicode="&#xe90a;" glyph-name="arrow-down-right" d="M1023.569 906.511l-152.464-0.070 0.312-710.049-763.601 763.601-107.801-107.801 763.601-763.601-710.014 0.348-0.070-152.464 970.451-0.451z" />
<glyph unicode="&#xe90b;" glyph-name="arrow-down" d="M152.522 295.463l56.254 57.611 262.813-262.813v869.733h80.751v-870.276l262.813 261.999 56.322-56.254-359.511-359.443-359.443 359.443z" />
<glyph unicode="&#xe90c;" glyph-name="arrow-left" d="M359.463 807.478l57.611-56.254-262.813-262.813h869.733v-80.751h-870.276l261.999-262.813-56.254-56.322-359.443 359.511 359.443 359.443z" />
<glyph unicode="&#xe90d;" glyph-name="arrow-right" d="M664.519 88.546l-57.594 56.252 262.813 262.811h-869.732v80.785h870.241l-261.975 262.811 56.247 56.249 359.452-359.46-359.452-359.449z" />
<glyph unicode="&#xe90e;" glyph-name="arrow-up-left" d="M0.482-10.519l152.429 0.105-0.312 710.076 763.605-763.632 107.767 107.771-763.605 763.632 710.052-0.312 0.105 152.434-970.492 0.417z" />
<glyph unicode="&#xe90f;" glyph-name="arrow-up-right" d="M1023.518-10.519l-152.429 0.105 0.312 710.076-763.605-763.632-107.767 107.771 763.605 763.632-710.052-0.312-0.105 152.434 970.492 0.417z" />
<glyph unicode="&#xe910;" glyph-name="arrow-up" d="M871.478 600.537l-56.254-57.611-262.813 262.813v-869.733h-80.751v870.276l-262.813-261.999-56.322 56.254 359.511 359.443 359.443-359.443z" />
<glyph unicode="&#xe911;" glyph-name="attach" d="M755.787 704.016v-409.613c0-141.157-109.384-255.984-243.812-255.984s-243.78 114.827-243.78 255.984v409.613c0 84.701 65.612 153.597 146.275 153.597s146.275-68.896 146.275-153.597v-409.613c0-28.212-21.871-51.209-48.768-51.209s-48.768 22.999-48.768 51.209v409.613h-97.505v-409.613c0-84.701 65.612-153.597 146.275-153.597 80.695 0 146.275 68.896 146.275 153.597v409.613c0 141.157-109.352 255.984-243.78 255.984s-243.812-114.827-243.812-255.984v-409.613c0-197.613 153.125-358.403 341.317-358.403s341.349 160.789 341.349 358.403v409.613h-97.537z" />
<glyph unicode="&#xe912;" glyph-name="back" d="M36.606 956.815h219.409c20.126 0 36.576-14.346 36.576-31.807v-386.878l680.947 419.422c4.289 1.558 8.955 2.419 13.857 2.419 20.267 0 36.576-14.223 36.576-31.807v-960.328c0-17.543-16.309-31.807-36.576-31.807-4.903 0-9.569 0.902-13.857 2.46l-680.947 419.381v-386.878c0-17.461-16.449-31.807-36.576-31.807h-219.409c-20.078 0-36.576 14.346-36.576 31.807v954.017c0 17.461 16.497 31.807 36.576 31.807z" />
<glyph unicode="&#xe913;" glyph-name="monitor-heart" d="M0.023 754.31c0 26.187 8.77 48.050 26.309 65.59s39.404 26.309 65.59 26.309h840.153c26.184 0 48.050-8.77 65.594-26.309 17.535-17.539 26.307-39.404 26.307-65.59v-135.645c0-8.060-2.731-14.814-8.192-20.266s-12.226-8.177-20.295-8.177c-8.069 0-14.814 2.725-20.255 8.177-5.43 5.452-8.141 12.207-8.141 20.266v135.645c0 8.761-3.648 16.787-10.942 24.078-7.285 7.29-15.314 10.937-24.076 10.937h-840.153c-8.761 0-16.787-3.645-24.078-10.937s-10.937-15.317-10.937-24.078v-135.645c0-8.060-2.731-14.814-8.192-20.266s-12.225-8.177-20.294-8.177c-8.069 0-14.819 2.725-20.252 8.177s-8.149 12.207-8.149 20.266v135.645zM91.923 49.798c-26.187 0-48.050 8.773-65.59 26.317-17.539 17.535-26.309 39.4-26.309 65.586v135.646c0 8.058 2.731 14.814 8.192 20.266s12.226 8.177 20.295 8.177c8.069 0 14.818-2.725 20.251-8.177s8.149-12.207 8.149-20.266v-135.646c0-8.76 3.645-16.786 10.937-24.076 7.29-7.296 15.317-10.933 24.078-10.933h840.153c8.762 0 16.791 3.637 24.076 10.933 7.296 7.29 10.942 15.317 10.942 24.076v135.646c0 8.058 2.731 14.814 8.192 20.266s12.226 8.177 20.295 8.177c8.060 0 14.814-2.725 20.244-8.177s8.15-12.207 8.15-20.266v-135.646c0-26.187-8.773-48.051-26.307-65.586-17.545-17.545-39.409-26.317-65.594-26.317h-840.153zM398.256 192.018c5.309 0 10.368 1.332 15.175 3.996 4.816 2.664 8.428 6.656 10.837 11.974l201.506 403.026 87.733-175.48c2.408-5.318 6.025-9.31 10.852-11.974s9.889-3.996 15.189-3.996h255.986c8.060 0 14.814 2.731 20.266 8.192s8.181 12.226 8.181 20.295c0 8.069-2.731 14.818-8.181 20.251s-12.206 8.149-20.266 8.149h-237.937l-105.781 211.576c-2.267 4.816-5.66 8.205-10.182 10.169-4.522 1.972-9.628 2.957-15.317 2.957s-10.937-0.987-15.743-2.957c-4.816-1.964-8.428-5.352-10.837-10.169l-201.506-403.026-87.733 175.48c-2.408 5.32-6.025 9.31-10.852 11.974s-9.889 3.996-15.189 3.996h-255.988c-8.060 0-14.814-2.731-20.266-8.192s-8.177-12.225-8.177-20.294c0-8.069 2.725-14.819 8.177-20.252s12.207-8.149 20.266-8.149h237.941l105.781-211.574c2.417-5.318 6.038-9.31 10.865-11.974s9.893-3.996 15.202-3.996z" />
<glyph unicode="&#xe914;" glyph-name="bell" d="M632.487 49.817c0-62.871-53.916-113.79-120.487-113.79s-120.487 50.919-120.487 113.79v0zM511.981 959.974c198.78 0 361.423-153.603 361.423-341.336v0-312.851l150.57-199.097h-1023.949l150.57 199.097v312.851c0 187.733 162.643 341.336 361.384 341.336z" />
<glyph unicode="&#xe915;" glyph-name="bin" d="M860.417 703.974v-753.766c0-14.089-11.196-14.188-24.893-14.188v0h-647.099c-13.665 0-24.893 0.099-24.893 14.188v0 753.766h696.886zM462.22 550.416h-49.787v-409.597h49.787v409.597zM611.547 550.416h-49.787v-409.597h49.787v409.597zM621.855 959.997l99.542-102.416h163.924c13.698 0 24.893-22.931 24.893-37.020v0-65.363h-796.426v65.363c0 14.089 11.196 37.020 24.893 37.020v0h163.892l99.542 102.416h219.742zM601.227 908.789h-178.488l-49.787-51.208h278.062l-49.787 51.208z" />
<glyph unicode="&#xe916;" glyph-name="calendar" d="M153.399-63.981c-25.856 0-47.442 8.652-64.761 25.975s-25.977 38.901-25.977 64.765v717.194c0 25.856 8.66 47.442 25.977 64.761s38.905 25.977 64.761 25.977h99.359v95.049c0 8.715 2.865 15.937 8.594 21.666 5.729 5.72 12.946 8.581 21.651 8.581 8.716 0 15.938-2.861 21.667-8.581 5.72-5.729 8.581-12.951 8.581-21.666v-95.049h401.819v97.21c0 7.995 2.682 14.674 8.046 20.039s12.044 8.046 20.039 8.046c7.986 0 14.66-2.682 20.024-8.046 5.372-5.364 8.061-12.044 8.061-20.039v-97.21h99.361c25.854 0 47.442-8.66 64.755-25.977 17.323-17.319 25.985-38.905 25.985-64.761v-717.194c0-25.864-8.662-47.442-25.985-64.765-17.314-17.323-38.901-25.975-64.755-25.975h-717.199zM153.399-7.818h717.199c8.652 0 16.569 3.602 23.772 10.795 7.204 7.204 10.795 15.13 10.795 23.781v492.525h-786.336v-492.525c0-8.652 3.599-16.579 10.799-23.781 7.198-7.193 15.125-10.795 23.774-10.795zM118.828 575.463h786.336v168.487c0 8.649-3.591 16.574-10.795 23.772s-15.121 10.799-23.772 10.799h-717.199c-8.649 0-16.575-3.599-23.774-10.799s-10.799-15.123-10.799-23.772v-168.487zM511.997 320.548c-11.589 0-21.69 4.302-30.302 12.905-8.603 8.603-12.905 18.704-12.905 30.302 0 11.589 4.302 21.686 12.905 30.288 8.612 8.603 18.713 12.905 30.302 12.905s21.69-4.302 30.302-12.905c8.603-8.603 12.905-18.7 12.905-30.288 0-11.599-4.302-21.699-12.905-30.302-8.612-8.603-18.713-12.905-30.302-12.905zM287.329 320.548c-11.589 0-21.69 4.302-30.302 12.905-8.602 8.603-12.904 18.704-12.904 30.302 0 11.589 4.302 21.686 12.904 30.288 8.613 8.603 18.713 12.905 30.302 12.905s21.69-4.302 30.302-12.905c8.602-8.603 12.904-18.7 12.904-30.288 0-11.599-4.302-21.699-12.904-30.302-8.613-8.603-18.713-12.905-30.302-12.905zM736.664 320.548c-11.589 0-21.69 4.302-30.302 12.905-8.603 8.603-12.905 18.704-12.905 30.302 0 11.589 4.302 21.686 12.905 30.288 8.612 8.603 18.713 12.905 30.302 12.905s21.69-4.302 30.302-12.905c8.603-8.603 12.905-18.7 12.905-30.288 0-11.599-4.302-21.699-12.905-30.302-8.612-8.603-18.713-12.905-30.302-12.905zM511.997 104.52c-11.589 0-21.69 4.296-30.302 12.902-8.603 8.603-12.905 18.704-12.905 30.302 0 11.589 4.302 21.69 12.905 30.302 8.612 8.603 18.713 12.905 30.302 12.905s21.69-4.302 30.302-12.905c8.603-8.612 12.905-18.713 12.905-30.302 0-11.598-4.302-21.699-12.905-30.302-8.612-8.607-18.713-12.902-30.302-12.902zM287.329 104.52c-11.589 0-21.69 4.296-30.302 12.902-8.602 8.603-12.904 18.704-12.904 30.302 0 11.589 4.302 21.69 12.904 30.302 8.613 8.603 18.713 12.905 30.302 12.905s21.69-4.302 30.302-12.905c8.602-8.612 12.904-18.713 12.904-30.302 0-11.598-4.302-21.699-12.904-30.302-8.613-8.607-18.713-12.902-30.302-12.902zM736.664 104.52c-11.589 0-21.69 4.296-30.302 12.902-8.603 8.603-12.905 18.704-12.905 30.302 0 11.589 4.302 21.69 12.905 30.302 8.612 8.603 18.713 12.905 30.302 12.905s21.69-4.302 30.302-12.905c8.603-8.612 12.905-18.713 12.905-30.302 0-11.598-4.302-21.699-12.905-30.302-8.612-8.607-18.713-12.902-30.302-12.902z" />
<glyph unicode="&#xe917;" glyph-name="camera" d="M665.585 852.208l102.418-101.038h51.208v25.235c0 13.904 11.516 25.267 25.571 25.267v0h51.208c14.056 0 25.605-11.364 25.605-25.267v0-25.235h76.78c14.089 0 25.605-11.397 25.605-25.267v0-656.829c0-13.904-11.516-25.267-25.605-25.267v0h-972.769c-14.089 0-25.605 11.364-25.605 25.267v0 656.829c0 13.872 11.516 25.267 25.605 25.267v0h230.407l102.384 101.038h307.186zM511.991 650.131c-141.418 0-255.978-113.085-255.978-252.644s114.56-252.644 255.978-252.644c141.418 0 256.010 113.085 256.010 252.644s-114.593 252.644-256.010 252.644zM511.991 549.064c84.831 0 153.594-67.825 153.594-151.574 0-83.715-68.762-151.606-153.594-151.606s-153.594 67.89-153.594 151.606c0 83.747 68.762 151.574 153.594 151.574z" />
<glyph unicode="&#xe918;" glyph-name="chevron-down" d="M511.991 345.612l409.577 409.577 102.395-102.395-511.972-511.972-511.972 511.972 102.395 102.395z" />
<glyph unicode="&#xe919;" glyph-name="chevron-left" d="M409.614 448.005l409.577-409.577-102.395-102.395-511.972 511.972 511.972 511.972 102.395-102.395z" />
<glyph unicode="&#xe91a;" glyph-name="chevron-right" d="M614.404 448.005l-409.577-409.577 102.395-102.395 511.972 511.972-511.972 511.972-102.395-102.395z" />
<glyph unicode="&#xe91b;" glyph-name="chevron-up" d="M511.991 550.4l409.577-409.577 102.395 102.395-511.972 511.972-511.972-511.972 102.395-102.395z" />
<glyph unicode="&#xe91c;" glyph-name="clock" d="M511.991 959.996c282.335 0 511.987-229.68 511.987-512.006s-229.652-511.969-511.987-511.969c-282.335 0-511.987 229.644-511.987 511.969s229.652 512.006 511.987 512.006zM511.991 846.201c-219.533 0-398.225-178.611-398.225-398.21 0-219.525 178.692-398.21 398.225-398.21 219.569 0 398.225 178.684 398.225 398.21 0 219.599-178.654 398.21-398.225 398.21zM568.883 732.427v-227.553h113.799v-113.759h-227.598v341.312h113.799z" />
<glyph unicode="&#xe91d;" glyph-name="cloud" d="M844.685 496.31c0 0.581 0.099 1.129 0.099 1.709 0 165.573-137.786 300.281-307.181 300.281-133.596 0-247.196-83.914-289.429-200.532-137.489-3.902-248.153-114.359-248.153-249.874 0-137.966 115.020-250.197 256.368-250.197h562.79c112.908 0 204.798 89.784 204.798 200.144 0 101.943-78.362 186.116-179.293 198.468z" />
<glyph unicode="&#xe91e;" glyph-name="cog" d="M512.019 305.773c-78.564 0-142.208 63.754-142.208 142.208 0 78.564 63.644 142.245 142.208 142.245 78.454 0 142.208-63.68 142.208-142.245 0-78.454-63.754-142.208-142.208-142.208v0zM1023.989 362.67v170.657l-126.81 14.078c-9.385 36.514-23.793 70.976-42.49 102.686l79.664 99.571-120.687 120.687-99.534-79.664c-31.748 18.734-66.173 33.068-102.723 42.527l-14.041 126.773h-170.694l-14.078-126.773c-36.588-9.459-71.011-23.793-102.686-42.527l-99.608 79.664-120.724-120.687 79.737-99.571c-18.734-31.675-33.068-66.173-42.527-102.686l-126.773-14.078v-170.657l126.773-14.078c9.459-36.588 23.793-71.011 42.527-102.686l-79.737-99.608 120.724-120.687 99.608 79.701c31.675-18.734 66.1-33.105 102.686-42.49l14.078-126.81h170.694l14.041 126.81c36.551 9.385 70.976 23.757 102.651 42.49l99.608-79.701 120.687 120.687-79.664 99.608c18.77 31.675 33.105 66.1 42.49 102.686l126.81 14.078z" />
<glyph unicode="&#xe91f;" glyph-name="comment" d="M682.67 391.106c-31.417 0-56.897 25.478-56.897 56.894s25.479 56.894 56.897 56.894c31.417 0 56.897-25.478 56.897-56.894s-25.479-56.894-56.897-56.894zM512.018 391.106c-31.417 0-56.897 25.478-56.897 56.894s25.479 56.894 56.897 56.894c31.417 0 56.859-25.478 56.859-56.894s-25.442-56.894-56.859-56.894zM341.33 391.106c-31.381 0-56.859 25.478-56.859 56.894s25.479 56.894 56.859 56.894c31.417 0 56.897-25.478 56.897-56.894s-25.479-56.894-56.897-56.894zM512.018 959.974c-282.794 0-511.993-229.226-511.993-511.974 0-141.392 57.3-269.367 149.938-362.040l-149.938-149.934h511.993c282.794 0 511.956 229.19 511.956 511.974 0 282.748-229.161 511.974-511.956 511.974z" />
<glyph unicode="&#xe920;" glyph-name="crop" d="M284.481 220.471v455.096h455.113v-455.096h-455.113zM853.353 220.471v483.508c0 47.071-38.311 85.344-85.347 85.344h-483.524v170.652h-113.796v-170.652h-170.658v-113.756h170.658v-483.544c0-47.071 38.275-85.344 85.347-85.344h483.524v-170.652h113.796v170.652h170.621v113.792h-170.621z" />
<glyph unicode="&#xe921;" glyph-name="document" d="M810.651 71.392c0-18.148-14.435-32.996-32.079-32.996h-533.176c-17.643 0-32.079 14.848-32.079 32.996v753.235c0 18.115 14.435 32.996 32.079 32.996h284.28c17.675 0 32.079-14.881 32.079-32.996v-190.024c0-18.148 14.435-32.996 32.079-32.996h184.74c17.643 0 32.079-14.848 32.079-32.996v-497.217zM634.219 936.681c-12.479 12.836-28.261 23.328-35.125 23.328h-428.344c-17.643 0-37.692-2.573-44.525-5.775-6.865-3.168-12.447-34.679-12.447-52.827v-906.797c0-18.148 2.503-38.771 5.613-45.799 3.048-7.061 33.715-12.803 51.357-12.803h682.501c17.611 0 37.66 2.607 44.493 5.741 6.865 3.168 12.479 34.712 12.479 52.86v625.209c0 18.148-10.233 43.489-22.712 56.324l-253.292 260.537z" />
<glyph unicode="&#xe922;" glyph-name="drawer" d="M810.679 857.593v-665.575h-193.697c0-51.208-47.285-102.384-102.271-102.384-54.952 0-102.271 51.175-102.271 102.384h-199.119v665.575h597.357zM910.223 934.405c0 14.121-11.132 25.604-24.893 25.604h-746.656c-13.763 0-24.893-11.483-24.893-25.604v-972.792c0-14.121 11.132-25.604 24.893-25.604h746.656c13.763 0 24.893 11.483 24.893 25.604v972.792z" />
<glyph unicode="&#xe923;" glyph-name="dribble" d="M756.212 85.395c-4.351 26.367-27.774 154.68-84.987 312.304 141.113 22.527 263.346-16.127 272.37-19.135-19.391-121.786-89.148-226.932-187.382-293.169zM512 10.774c-105.914 0-202.869 37.63-278.513 100.154 5.76-4.608 9.727-7.615 9.727-7.615s83.9 182.839 343.151 273.138c0.96 0.384 1.855 0.64 2.88 0.895 61.501-159.863 86.972-293.681 93.372-331.951-52.413-22.335-110.138-34.623-170.615-34.623zM74.774 448.064c0 4.608 0.192 9.216 0.319 13.759 7.807-0.127 223.796-5.056 448.873 62.269 12.479-24.447 24.51-49.406 35.518-74.3-5.887-1.6-11.519-3.328-17.279-5.184-235.956-76.22-355.566-288.561-355.566-288.561s0.127-0.127 0.127-0.192c-69.628 77.437-111.995 179.83-111.995 292.209zM325.385 843.435c5.824-7.807 86.715-117.434 162.359-251.956-209.91-55.742-392.109-53.565-403.628-53.373 28.35 135.418 119.353 247.732 241.267 305.329zM800.689 776.111c-1.087-1.663-63.357-96.444-228.341-158.327-74.749 137.338-156.856 246.451-163.384 255.091 33.022 8.064 67.516 12.352 103.034 12.352 110.586 0 211.701-41.213 288.689-109.115zM949.097 452.351c-6.4 1.408-154.36 33.214-304.624 14.335-3.007 7.488-6.144 14.975-9.408 22.59-9.088 21.438-18.88 42.622-29.118 63.421 172.791 70.396 242.868 171.767 243.636 173.048 61.372-74.492 98.364-169.655 99.515-273.394zM1013.479 551.034c-6.655 32.895-16.768 65.341-29.886 96.252-12.736 30.399-28.671 59.644-47.165 86.972-18.367 27.135-39.358 52.605-62.461 75.709-23.103 23.231-48.638 44.222-75.772 62.524-27.327 18.496-56.637 34.366-86.972 47.23-30.91 12.991-63.229 23.103-96.252 29.823-33.598 6.912-68.349 10.432-102.971 10.432-34.75 0-69.373-3.52-103.163-10.432-32.83-6.72-65.212-16.831-96.252-29.823-30.207-12.863-59.581-28.734-86.972-47.23-27.006-18.304-52.478-39.294-75.772-62.524-23.103-23.103-44.093-48.574-62.332-75.709-18.496-27.327-34.366-56.573-47.294-86.972-13.12-30.91-23.103-63.357-29.823-96.252-6.912-33.598-10.367-68.349-10.367-102.971 0-34.75 3.456-69.5 10.367-103.163 6.72-32.895 16.703-65.277 29.823-96.187 12.928-30.334 28.799-59.709 47.294-87.036 18.239-27.071 39.231-52.541 62.332-75.709 23.295-23.166 48.766-44.158 75.772-62.461 27.39-18.496 56.765-34.366 86.972-47.165 31.038-13.12 63.421-23.103 96.252-29.886 33.79-6.912 68.413-10.432 103.163-10.432 34.623 0 69.373 3.52 102.971 10.432 33.022 6.784 65.341 16.768 96.252 29.886 30.334 12.799 59.644 28.671 86.972 47.165 27.135 18.304 52.67 39.294 75.772 62.461s44.093 48.638 62.461 75.709c18.496 27.327 34.431 56.702 47.165 87.036 13.12 30.91 23.231 63.292 29.886 96.187 6.976 33.663 10.495 68.413 10.495 103.163 0 34.623-3.52 69.373-10.495 102.971z" />
<glyph unicode="&#xe924;" glyph-name="education" d="M537.596 852.208l486.384-303.144-486.384-303.144-435.209 271.234v-303.534c15.277-8.758 25.605-24.843 25.605-43.502 0-17.648-9.205-33.147-23.13-42.167v0l48.734-84.138h-153.594l48.734 84.138c-13.924 9.020-23.162 24.518-23.162 42.167 0 18.657 10.361 34.743 25.605 43.502v0 335.444l486.417 303.144zM204.807 393.607l332.791-207.446 332.791 207.414v-142.325l-332.791-207.446-332.791 207.446v142.357z" />
<glyph unicode="&#xe925;" glyph-name="email" d="M97.454 43.815c-27.224 0-50.267 9.431-69.129 28.293s-28.293 41.906-28.293 69.127v613.528c0 27.224 9.431 50.267 28.293 69.129s41.905 28.293 69.129 28.293h829.090c27.226 0 50.269-9.431 69.132-28.293s28.293-41.905 28.293-69.129v-613.528c0-27.221-9.431-50.264-28.293-69.127s-41.906-28.293-69.132-28.293h-829.090zM943.132 693.623l-404.912-259.204c-4.144-2.344-8.429-4.192-12.853-5.54-4.42-1.348-8.876-2.021-13.365-2.021-4.494 0-8.946 0.673-13.365 2.021-4.43 1.348-8.714 3.196-12.853 5.54l-404.915 259.204v-552.388c0-4.839 1.554-8.811 4.662-11.921s7.082-4.662 11.923-4.662h829.090c4.839 0 8.816 1.552 11.926 4.662 3.105 3.11 4.662 7.081 4.662 11.921v552.388zM512.003 501.892l422.842 269.456h-845.688l422.847-269.456zM80.869 681.188v0z" />
<glyph unicode="&#xe926;" glyph-name="eye-Closed" d="M138.613 903.112l819.159-836.266-72.39-73.936-178.799 182.532c-62.393-26.577-127.492-41.027-194.57-41.027-193.778 0-371.652 117.556-512.011 313.596 66.584 92.934 141.646 167.88 222.747 221.37v0l-156.527 159.795 72.39 73.936zM335.756 554.013c-18.016-31.057-28.541-67.233-28.541-106.003 0-115.468 91.659-209.075 204.798-209.075 37.944 0 73.314 10.813 103.768 29.238v0l-77.637 79.258c-8.381-2.324-17.058-3.975-26.131-3.975-56.553 0-102.415 46.922-102.415 104.554 0 9.297 1.584 18.189 3.795 26.745v0zM512 761.606c193.778 0 371.685-117.556 511.979-313.596-48.998-68.445-102.647-127.054-159.859-174.717v0l-148.641 151.745c0.825 7.545 1.32 15.225 1.32 22.973 0 115.468-91.693 209.075-204.798 209.075-7.589 0-15.112-0.505-22.502-1.348v0l-90.306 92.226c36.855 8.858 74.502 13.642 112.809 13.642z" />
<glyph unicode="&#xe927;" glyph-name="eye" d="M511.975 760.888c193.78 0 371.689-117.285 512.016-312.872-140.328-195.587-318.237-312.905-512.016-312.905-193.747 0-371.623 117.319-511.984 312.905 140.361 195.587 318.237 312.872 511.984 312.872zM511.975 656.609c-113.107 0-204.8-93.391-204.8-208.592s91.693-208.592 204.8-208.592c113.107 0 204.8 93.391 204.8 208.592s-91.693 208.592-204.8 208.592zM511.975 552.316c56.488 0 102.416-46.712 102.416-104.313 0-57.5-45.929-104.28-102.416-104.28-56.553 0-102.384 46.78-102.384 104.28 0 57.601 45.831 104.313 102.384 104.313z" />
<glyph unicode="&#xe928;" glyph-name="facebook" d="M1023.98 444.867c0 284.487-229.218 515.108-511.98 515.108-282.759 0-511.98-230.621-511.98-515.108 0-257.1 187.222-470.207 431.982-508.851v359.952h-129.994v148.898h129.994v113.485c0 129.099 76.438 200.409 193.379 200.409 56.021 0 114.606-10.060 114.606-10.060v-126.765h-64.555c-63.599 0-83.437-39.71-83.437-80.448v-96.621h141.993l-22.696-148.898h-119.297v-359.952c244.762 38.644 431.982 251.74 431.982 508.851z" />
<glyph unicode="&#xe929;" glyph-name="filters" d="M398.237 277.334c74.308 0 137.326-47.512 160.714-113.795v0h436.575c15.617 0 28.448-12.794 28.448-28.412v0-56.897c0-15.655-12.83-28.449-28.448-28.449v0h-436.575c-23.388-66.246-86.406-113.757-160.714-113.757-74.345 0-137.326 47.512-160.787 113.757v0h-208.957c-15.653 0-28.448 12.794-28.448 28.449v0 56.897c0 15.617 12.794 28.412 28.448 28.412v0h208.957c23.462 66.282 86.442 113.795 160.787 113.795zM398.237 191.988c-47.144 0-85.343-38.2-85.343-85.308 0-47.146 38.199-85.346 85.343-85.346 47.107 0 85.343 38.2 85.343 85.346 0 47.108-38.236 85.308-85.343 85.308zM739.535 618.625c74.345 0 137.326-47.476 160.751-113.757v0h95.241c15.617 0 28.448-12.794 28.448-28.412v0-56.897c0-15.655-12.83-28.449-28.448-28.449v0h-95.241c-23.426-66.246-86.406-113.795-160.751-113.795-74.308 0-137.326 47.549-160.751 113.795v0h-550.292c-15.653 0-28.448 12.794-28.448 28.449v0 56.897c0 15.617 12.794 28.412 28.448 28.412v0h550.292c23.426 66.282 86.442 113.757 160.751 113.757zM739.535 533.316c-47.144 0-85.343-38.2-85.343-85.308 0-47.146 38.199-85.346 85.343-85.346 47.107 0 85.343 38.2 85.343 85.346 0 47.108-38.236 85.308-85.343 85.308zM284.465 959.974c74.308 0 137.326-47.512 160.751-113.795v0h550.292c15.653 0 28.448-12.794 28.448-28.412v0-56.897c0-15.655-12.794-28.449-28.448-28.449v0h-550.292c-23.426-66.282-86.442-113.795-160.751-113.795-74.345 0-137.326 47.512-160.751 113.795v0h-95.241c-15.617 0-28.448 12.794-28.448 28.449v0 56.897c0 15.617 12.83 28.412 28.448 28.412v0h95.241c23.426 66.282 86.406 113.795 160.751 113.795zM284.465 874.628c-47.144 0-85.343-38.2-85.343-85.308 0-47.146 38.199-85.346 85.343-85.346 47.107 0 85.343 38.2 85.343 85.346 0 47.108-38.236 85.308-85.343 85.308z" />
<glyph unicode="&#xe92a;" glyph-name="emoji-food-beverage" d="M32.020-63.966c-9.067 0-16.666 3.072-22.799 9.216s-9.199 13.754-9.199 22.832c0 9.067 3.067 16.666 9.199 22.775s13.733 9.169 22.799 9.169h831.961c9.067 0 16.666-3.072 22.799-9.216s9.193-13.754 9.193-22.832c0-9.078-3.060-16.666-9.193-22.787-6.132-6.109-13.732-9.159-22.799-9.159h-831.961zM200.621 177.249c-55.625 0-102.961 18.911-142.008 56.735-39.060 37.822-58.59 83.729-58.59 137.72v513.574c0 20.703 7.275 38.329 21.822 52.878s32.175 21.822 52.878 21.822h840.953c29.778 0 55.271-10.069 76.487-30.205 21.204-20.15 31.807-44.948 31.807-74.398v-142.776c0-29.448-10.603-54.248-31.807-74.396-21.216-20.138-46.708-30.205-76.487-30.205h-127.999v-236.292c0-53.993-19.529-99.899-58.589-137.72-39.049-37.822-86.391-56.735-142.026-56.735h-386.443zM787.679 671.993h127.999c12.299 0 22.764 3.898 31.372 11.695 8.62 7.798 12.929 17.434 12.929 28.911v142.776c0 11.477-4.309 21.114-12.929 28.911-8.608 7.797-19.073 11.696-31.372 11.696h-127.999v-223.99zM587.064 241.246c37.567 0 69.73 12.82 96.492 38.463 26.75 25.641 40.126 56.472 40.126 92.491v523.781h-411.068v-74.83l97.98-80.492c2.133-2.133 6.399-10.666 12.8-25.598v-193.222c0-8.533-3.201-15.998-9.6-22.4s-13.867-9.6-22.4-9.6h-206.774c-8.533 0-16 3.201-22.4 9.6s-9.6 13.867-9.6 22.4v193.222c0 2.133 4.266 10.666 12.8 25.598l97.978 80.492v74.83h-199.38v-523.781c0-36.019 13.375-66.85 40.126-92.491s58.91-38.463 96.475-38.463h386.443z" />
<glyph unicode="&#xe92b;" glyph-name="bed" d="M0 163.556v255.994c0 16.848 4.849 34.791 14.549 53.829 9.7 19.029 23.813 33.322 42.339 42.879v130.841c0 32.095 10.942 59.077 32.825 80.952 21.873 21.882 48.858 32.825 80.952 32.825h255.994c19.617 0 36.355-4.029 50.218-12.089 13.852-8.058 25.557-19.198 35.114-33.422 9.557 14.222 21.262 25.363 35.114 33.422 13.862 8.060 30.601 12.089 50.218 12.089h255.994c32.095 0 59.075-10.942 80.95-32.825 21.886-21.873 32.829-48.856 32.829-80.952v-130.841c18.524-9.557 32.635-23.851 42.335-42.879 9.7-19.038 14.549-36.982 14.549-53.829v-255.994c0-8.060-2.731-14.814-8.192-20.266s-12.226-8.181-20.296-8.181-14.814 2.731-20.256 8.181c-5.431 5.452-8.141 12.208-8.141 20.266v85.331h-910.205v-85.331c0-8.060-2.731-14.814-8.192-20.266s-12.225-8.181-20.294-8.181-14.82 2.731-20.253 8.181c-5.433 5.452-8.149 12.208-8.149 20.266zM540.433 533.325h369.766v113.775c0 16.118-5.451 29.629-16.353 40.534s-24.413 16.356-40.531 16.356h-255.994c-16.118 0-29.629-5.452-40.532-16.356s-16.356-24.414-16.356-40.534v-113.775zM113.776 533.325h369.769v113.775c0 16.118-5.451 29.629-16.356 40.534s-24.414 16.356-40.532 16.356h-255.994c-16.118 0-29.629-5.452-40.532-16.356s-16.356-24.414-16.356-40.534v-113.775zM56.886 305.774h910.205v113.776c0 16.118-5.451 29.629-16.364 40.532-10.902 10.904-24.413 16.356-40.531 16.356h-796.423c-16.118 0-29.629-5.451-40.534-16.356s-16.356-24.414-16.356-40.532v-113.776z" />
<glyph unicode="&#xe92c;" glyph-name="flickr" d="M227.151 675.059c125.37 0 227.124-101.69 227.124-227.060s-101.755-227.060-227.124-227.060c-125.434 0-227.124 101.69-227.124 227.060s101.69 227.060 227.124 227.060zM796.875 675.059c125.434 0 227.124-101.69 227.124-227.060s-101.69-227.060-227.124-227.060c-125.37 0-227.060 101.69-227.060 227.060s101.69 227.060 227.060 227.060z" />
<glyph unicode="&#xe92d;" glyph-name="folder" d="M0.003 74.679c0-13.665 11.548-24.893 25.603-24.893h972.77c14.056 0 25.603 11.228 25.603 24.893v597.32c0 13.665-11.548 24.861-25.603 24.861h-537.576l-153.589 149.354h-281.606c-14.056 0-25.603-11.196-25.603-24.893v-746.642z" />
<glyph unicode="&#xe92e;" glyph-name="forward" d="M924.018 956.833h-190.16c-17.443 0-31.7-14.345-31.7-31.807v-386.89l-590.171 419.435c-3.717 1.558-7.761 2.418-12.011 2.418-17.524 0-31.7-14.224-31.7-31.807v-960.358c0-17.544 14.176-31.807 31.7-31.807 4.248 0 8.293 0.902 12.011 2.459l590.171 419.393v-386.89c0-17.46 14.257-31.807 31.7-31.807h190.16c17.403 0 31.7 14.345 31.7 31.807v954.046c0 17.46-14.297 31.807-31.7 31.807z" />
<glyph unicode="&#xe92f;" glyph-name="credit-score" d="M56.889 664.173h910.205v124.712c0 8.761-3.648 16.788-10.942 24.078-7.285 7.291-15.314 10.937-24.077 10.937h-840.172c-8.761 0-16.788-3.645-24.078-10.937s-10.937-15.317-10.937-24.078v-124.712zM0.003 788.885c0 26.187 8.77 48.051 26.31 65.592s39.404 26.31 65.592 26.31h840.172c26.185 0 48.051-8.77 65.596-26.31 17.536-17.54 26.307-39.404 26.307-65.592v-214.41c0-13.206-4.361-24.167-13.072-32.881s-19.674-13.070-32.879-13.070h-921.138v-352.263c0-8.76 3.645-16.786 10.937-24.077 7.291-7.296 15.317-10.933 24.078-10.933h236.511c8.097 0 14.861-2.72 20.294-8.15s8.15-12.196 8.15-20.296c0-8.1-2.717-14.865-8.15-20.296s-12.197-8.15-20.294-8.15h-236.511c-26.187 0-48.051 8.773-65.592 26.318-17.54 17.536-26.31 39.4-26.31 65.588v612.622zM56.889 788.885v0zM662.302 15.216c-5.395 0-10.865 1.060-16.412 3.179-5.537 2.119-10.785 5.655-15.744 10.617l-150.098 150.095c-5.329 5.319-8.23 11.789-8.704 19.413s2.427 14.568 8.704 20.836c6.049 6.059 12.705 9.088 19.968 9.088 7.253 0 14.018-3.029 20.296-9.088l141.991-141.335 303.152 303.138c5.543 5.547 12.114 8.448 19.746 8.704 7.621 0.257 14.56-2.755 20.826-9.030 6.063-6.267 9.149-12.976 9.252-20.124 0.112-7.149-2.975-13.862-9.252-20.138l-311.554-311.557c-4.957-4.963-10.026-8.497-15.202-10.617-5.187-2.119-10.842-3.179-16.966-3.179z" />
<glyph unicode="&#xe930;" glyph-name="gauge" d="M512 852.193c136.763 0 265.343-52.586 362.050-148.053 96.707-95.435 149.928-222.39 149.928-357.419 0-110.837-36.393-215.91-102.712-302.913v0l-73.182 72.188c47.611 67.238 73.513 146.947 73.513 230.726 0 108.004-42.596 209.562-119.968 285.949-77.34 76.355-180.184 118.424-289.627 118.424-109.377 0-212.287-42.069-289.627-118.424-77.34-76.387-119.936-177.945-119.936-285.949 0-83.779 25.868-163.487 73.446-230.758v0l-73.116-72.155c-66.352 86.97-102.746 192.076-102.746 302.913 0 135.030 53.254 261.984 149.961 357.419 96.674 95.468 225.254 148.053 362.017 148.053zM652.814 461.284c0 0-53.121-242.318-74.303-278.557s-68.167-48.646-104.889-27.709c-36.723 20.904-49.294 67.27-28.112 103.51 21.215 36.24 207.306 202.756 207.306 202.756zM204.829 397.466c28.276 0 51.175-22.63 51.175-50.534 0-27.872-22.899-50.534-51.175-50.534s-51.207 22.663-51.207 50.534c0 27.904 22.932 50.534 51.207 50.534zM819.22 397.475c28.243 0 51.175-22.63 51.175-50.534 0-27.872-22.932-50.534-51.175-50.534-28.31 0-51.207 22.663-51.207 50.534 0 27.904 22.899 50.534 51.207 50.534zM258.574 597.014c19.995 19.732 52.429 19.732 72.424 0 19.995-19.699 19.962-51.706 0-71.439-19.995-19.732-52.429-19.732-72.424 0-19.962 19.732-19.962 51.739 0 71.439zM693.046 597.028c19.995 19.732 52.396 19.732 72.39 0 19.962-19.699 19.995-51.706 0-71.439s-52.429-19.732-72.39 0c-19.995 19.732-19.995 51.706 0 71.439zM512.004 700.616c28.243 0 51.207-22.63 51.207-50.534s-22.964-50.501-51.207-50.501c-28.276 0-51.207 22.597-51.207 50.501s22.932 50.534 51.207 50.534z" />
<glyph unicode="&#xe931;" glyph-name="grid-2x2" d="M418.459 391.12c20.163 0 36.66-16.496 36.66-36.66v0-381.776c0-20.163-16.496-36.66-36.66-36.66v0h-381.774c-20.163 0-36.66 16.496-36.66 36.66v0 381.776c0 20.163 16.496 36.66 36.66 36.66v0zM987.314 391.12c20.163 0 36.66-16.496 36.66-36.66v0-381.776c0-20.163-16.496-36.66-36.66-36.66v0h-381.774c-20.163 0-36.66 16.496-36.66 36.66v0 381.776c0 20.163 16.496 36.66 36.66 36.66v0zM418.459 959.974c20.163 0 36.66-16.496 36.66-36.66v0-381.776c0-20.163-16.496-36.66-36.66-36.66v0h-381.774c-20.163 0-36.66 16.496-36.66 36.66v0 381.776c0 20.163 16.496 36.66 36.66 36.66v0zM987.314 959.974c20.163 0 36.66-16.496 36.66-36.66v0-381.776c0-20.163-16.496-36.66-36.66-36.66v0h-381.774c-20.163 0-36.66 16.496-36.66 36.66v0 381.776c0 20.163 16.496 36.66 36.66 36.66v0z" />
<glyph unicode="&#xe932;" glyph-name="grid-3x3" d="M199.108 163.574c15.618 0 28.448-12.795 28.448-28.448v0-170.655c0-15.654-12.831-28.448-28.448-28.448v0h-170.655c-15.654 0-28.448 12.795-28.448 28.448v0 170.655c0 15.654 12.795 28.448 28.448 28.448v0zM995.529 163.574c15.618 0 28.448-12.795 28.448-28.448v0-170.655c0-15.654-12.831-28.448-28.448-28.448v0h-170.655c-15.654 0-28.448 12.795-28.448 28.448v0 170.655c0 15.654 12.795 28.448 28.448 28.448v0zM597.312 163.574c15.654 0 28.448-12.795 28.448-28.448v0-170.655c0-15.654-12.795-28.448-28.448-28.448v0h-170.655c-15.618 0-28.448 12.795-28.448 28.448v0 170.655c0 15.654 12.831 28.448 28.448 28.448v0zM199.108 561.774c15.618 0 28.448-12.795 28.448-28.448v0-170.655c0-15.618-12.831-28.448-28.448-28.448v0h-170.655c-15.654 0-28.448 12.831-28.448 28.448v0 170.655c0 15.654 12.795 28.448 28.448 28.448v0zM995.529 561.774c15.618 0 28.448-12.795 28.448-28.448v0-170.655c0-15.618-12.831-28.448-28.448-28.448v0h-170.655c-15.654 0-28.448 12.831-28.448 28.448v0 170.655c0 15.654 12.795 28.448 28.448 28.448v0zM597.312 561.774c15.654 0 28.448-12.795 28.448-28.448v0-170.655c0-15.618-12.795-28.448-28.448-28.448v0h-170.655c-15.618 0-28.448 12.831-28.448 28.448v0 170.655c0 15.654 12.831 28.448 28.448 28.448v0zM199.108 959.993c15.618 0 28.448-12.795 28.448-28.448v0-170.655c0-15.654-12.831-28.448-28.448-28.448v0h-170.655c-15.654 0-28.448 12.795-28.448 28.448v0 170.655c0 15.654 12.795 28.448 28.448 28.448v0zM995.522 959.996c15.654 0 28.448-12.831 28.448-28.448v0-170.655c0-15.654-12.795-28.448-28.448-28.448v0h-170.655c-15.654 0-28.448 12.795-28.448 28.448v0 170.655c0 15.618 12.795 28.448 28.448 28.448v0zM597.312 959.993c15.654 0 28.448-12.795 28.448-28.448v0-170.655c0-15.654-12.795-28.448-28.448-28.448v0h-170.655c-15.618 0-28.448 12.795-28.448 28.448v0 170.655c0 15.654 12.831 28.448 28.448 28.448v0z" />
<glyph unicode="&#xe933;" glyph-name="headphones" d="M227.576 277.367c62.58 0 113.759-51.215 113.759-113.795v0-113.757c0-62.58-51.179-113.795-113.759-113.795v0h-28.448c-15.618 0-28.448 12.831-28.448 28.448v0 284.448c0 15.618 12.831 28.448 28.448 28.448v0zM824.877 277.367c15.654 0 28.448-12.831 28.448-28.448v-284.448c0-15.618-12.795-28.448-28.448-28.448h-28.448c-62.58 0-113.759 51.215-113.759 113.795v113.757c0 62.58 51.179 113.795 113.759 113.795h28.448zM512.009 959.996c282.288 0 511.969-229.677 511.969-511.963v0-483.552c0-15.654-12.795-28.448-28.448-28.448v0h-56.861c-15.654 0-28.448 12.795-28.448 28.448v0 483.552c0 219.56-178.648 398.169-398.21 398.169-219.599 0-398.21-178.609-398.21-398.169v0-483.552c0-15.654-12.795-28.448-28.448-28.448v0h-56.898c-15.618 0-28.448 12.795-28.448 28.448v0 483.552c0 282.285 229.68 511.963 512.006 511.963z" />
<glyph unicode="&#xe934;" glyph-name="heart" d="M940.668 419.073c111.080 109.059 111.080 286.074 0 395.171-111.008 109.023-291.192 108.987-402.198-0.072-9.789-9.564-18.403-19.885-26.432-30.458-8.065 10.611-16.717 20.896-26.506 30.532-111.008 109.023-291.192 108.987-402.198-0.072-111.117-109.133-111.080-286.038-0.036-395.063l426.688-419.097 430.684 419.061z" />
<glyph unicode="&#xe935;" glyph-name="history" d="M511.982 959.974c141.177 0 269.194-57.411 361.87-150.127 92.713-92.68 150.123-220.738 150.123-361.846 0-282.328-229.638-511.974-511.993-511.974-139.088 0-267.91 56.678-361.687 150.274v0l80.358 80.361c72.953-72.772 173.145-116.876 281.329-116.876 219.593 0 398.237 178.65 398.237 398.215 0 109.8-44.689 209.335-116.799 281.449-72.11 72.076-171.642 116.766-281.438 116.766-121.491 0-234-55.359-308.456-146.609v0l137.842-137.846h-341.341v341.317l122.59-122.559c95.719 112.037 237.117 179.457 389.365 179.457zM511.993 732.444v-227.556h113.792v-113.796h-227.547v341.353h113.756z" />
<glyph unicode="&#xe936;" glyph-name="home-narrow" d="M512 959.971l-511.971-511.971h127.973v-511.971h255.985v192.020c0 70.688 57.326 127.973 128.014 127.973s128.014-57.285 128.014-127.973v-192.020h255.943v511.971h128.014l-511.971 511.971z" />
<glyph unicode="&#xe937;" glyph-name="home-wide" d="M921.575 448v149.325h-153.592l-256.008 248.897-511.984-497.793h102.384v-298.651h307.216v248.897h204.767v-248.897h307.216v298.651h102.416z" />
<glyph unicode="&#xe938;" glyph-name="image" d="M947.176 846.223c42.367 0 76.815-33.489 76.815-74.679v0-647.087c0-41.189-34.448-74.679-76.815-74.679v0h-870.403c-42.333 0-76.781 33.489-76.781 74.679v0 647.087c0 41.189 34.448 74.679 76.781 74.679v0zM921.571 746.651h-819.193v-597.301l237.901 231.285c9.932 9.656 26.265 9.656 36.197 0v0l84.305-81.96 460.791 447.976zM297.216 632.875c44.791 0 81.083-35.779 81.083-79.979s-36.292-80.013-81.083-80.013c-44.791 0-81.083 35.813-81.083 80.013s36.292 79.979 81.083 79.979z" />
<glyph unicode="&#xe939;" glyph-name="instagram" d="M572.12 959.959c85.775-0.191 105.446-0.938 150.939-3.018 54.528-2.496 91.712-11.136 124.289-23.808 33.665-13.121 62.208-30.593 90.689-59.072s45.953-56.96 59.072-90.689c12.672-32.576 21.312-69.761 23.808-124.289 0.521-11.373 0.957-21.134 1.322-30.714l0.405-11.505c0.87-27.075 1.22-57.263 1.316-122.093v-93.5c-0.090-60.182-0.398-90.522-1.137-116.237l-0.374-11.633c-0.405-11.487-0.909-22.815-1.533-36.464-2.496-54.528-11.136-91.776-23.808-124.289-13.121-33.728-30.593-62.208-59.072-90.689s-57.024-46.016-90.689-59.072c-32.576-12.672-69.761-21.312-124.289-23.808-47.768-2.184-67.067-2.898-164.313-3.042h-93.519c-60.201 0.090-90.533 0.398-116.252 1.137l-11.634 0.374c-11.492 0.405-22.827 0.909-36.491 1.533-54.464 2.496-91.712 11.136-124.224 23.808-33.665 13.056-62.273 30.593-90.689 59.072-28.481 28.481-46.016 56.96-59.072 90.689-12.672 32.513-21.312 69.761-23.808 124.289-2.081 45.494-2.826 65.21-3.018 150.962v120.243c0.191 85.775 0.938 105.446 3.018 150.939 2.496 54.528 11.136 91.712 23.808 124.289 13.056 33.728 30.593 62.208 59.072 90.689 28.416 28.481 57.024 45.953 90.689 59.072 32.513 12.672 69.761 21.312 124.224 23.808 45.546 2.081 65.226 2.826 151.004 3.018zM543.745 867.777h-63.515c-73.574-0.066-105.227-0.398-133.616-1.31l-11.273-0.396c-9.402-0.357-19.014-0.783-30.267-1.29-49.92-2.304-76.992-10.625-95.040-17.664-23.936-9.281-40.961-20.352-58.88-38.273s-29.057-34.944-38.336-58.88c-6.977-18.048-15.296-45.12-17.6-95.040-0.416-9.003-0.777-16.955-1.089-24.59l-0.624-16.95c-0.915-28.389-1.223-60.042-1.283-133.616v-63.515c0.060-73.574 0.368-105.227 1.283-133.616l0.399-11.273c0.362-9.402 0.795-19.014 1.316-30.267 2.304-49.92 10.625-77.057 17.6-95.040 9.281-23.936 20.417-40.961 38.336-58.88s34.944-28.992 58.88-38.273c18.048-7.040 45.12-15.36 95.040-17.664 47.264-2.129 65.57-2.835 160.988-2.979h91.848c95.418 0.144 113.724 0.851 160.988 2.979 49.856 2.304 76.992 10.625 95.040 17.664 23.936 9.281 40.961 20.352 58.88 38.273s28.992 34.944 38.336 58.88c6.977 17.984 15.296 45.12 17.6 95.040 2.027 45.014 2.72 63.761 2.895 147.87v118.085c-0.176 84.11-0.869 102.857-2.895 147.87-2.304 49.92-10.625 76.992-17.6 95.040-9.344 23.936-20.417 40.961-38.336 58.88s-34.944 28.992-58.88 38.273c-18.048 7.040-45.185 15.36-95.040 17.664-11.253 0.507-20.865 0.933-30.267 1.29l-11.273 0.396c-28.389 0.912-60.042 1.244-133.616 1.31zM511.974 710.887c145.217 0 262.913-117.632 262.913-262.848 0-145.28-117.696-262.913-262.913-262.913s-262.913 117.632-262.913 262.913c0 145.217 117.696 262.848 262.913 262.848zM511.974 618.663c-94.272 0-170.688-76.416-170.688-170.624 0-94.272 76.416-170.688 170.688-170.688s170.688 76.416 170.688 170.688c0 94.208-76.416 170.624-170.688 170.624zM785.287 782.758c33.92 0 61.44-27.521 61.44-61.44s-27.521-61.44-61.44-61.44c-33.92 0-61.44 27.521-61.44 61.44s27.521 61.44 61.44 61.44z" />
<glyph unicode="&#xe93a;" glyph-name="scene" d="M947.179-63.969v742.373c0 35.198-12.535 65.328-37.605 90.389-25.061 25.071-55.183 37.605-90.386 37.605h-76.797v-66.556c0-10.24-3.413-18.773-10.239-25.6s-15.359-10.24-25.6-10.24h-221.726c-13.917 0-23.845 5.909-29.784 17.728-5.94 11.809-6.251 23.687-0.935 35.634l78.563 170.526c5.317 11.486 12.096 19.708 20.338 24.665 8.234 4.958 19.374 7.436 33.42 7.436h111.855c12.603 0 23.103-4.399 31.5-13.196 8.404-8.798 12.607-19.494 12.607-32.089v-57.112h76.797c49.755 0 92.055-17.428 126.909-52.285 34.854-34.849 52.285-77.152 52.285-126.907v-742.373h-51.204zM508.455 755.201h182.738v153.594h-114.018l-68.72-153.594zM153.615-63.969c-36.266 0-66.664 12.27-91.196 36.799-24.533 24.538-36.799 54.936-36.799 91.202v127.992c0 26.188 9.058 49.307 27.173 69.361s43.19 30.672 75.223 31.858v123.259c0 22.75 8.097 42.221 24.293 58.417s35.669 24.293 58.417 24.293h397.756c22.75 0 42.221-8.097 58.417-24.293s24.293-35.667 24.293-58.417v-123.259c32.033-1.186 57.108-11.328 75.223-30.424 18.116-19.106 27.174-42.704 27.174-70.795v-127.992c0-36.266-12.266-66.664-36.799-91.202-24.533-24.529-54.931-36.799-91.197-36.799h-511.978zM179.214 416.501v-133.895c15.359-8.865 27.732-22.046 37.118-39.537s14.079-34.508 14.079-51.045v-51.197h358.385v51.197c0 16.537 4.694 33.552 14.080 51.045s21.759 30.672 37.118 39.537v133.895c0 9.19-2.953 16.742-8.857 22.656-5.913 5.905-13.466 8.857-22.656 8.857h-397.756c-9.19 0-16.742-2.953-22.655-8.857-5.905-5.913-8.857-13.466-8.857-22.656zM153.615-12.765h511.978c23.039 0 41.599 7.996 55.678 23.998s21.119 33.599 21.119 52.799v127.992c0 15.359-4.71 27.732-14.131 37.118-9.428 9.386-21.852 14.079-37.272 14.079s-27.775-4.693-37.068-14.079c-9.284-9.386-13.925-21.759-13.925-37.118v-102.399h-460.781v102.399c0 15.359-4.711 27.732-14.131 37.118-9.429 9.386-21.854 14.079-37.273 14.079s-27.774-4.693-37.066-14.079c-9.284-9.386-13.927-21.759-13.927-37.118v-127.992c0-19.202 7.040-36.799 21.119-52.799s32.639-23.998 55.678-23.998z" />
<glyph unicode="&#xe93b;" glyph-name="link-away" d="M1023.974 561.778l-455.096 398.2v-232.901c-568.852-136.631-568.852-791.048-568.852-791.048s198 460.009 568.852 460.009v-232.461l455.096 398.2z" />
<glyph unicode="&#xe93c;" glyph-name="link" d="M309.145 570.2l81.156-81.184-263.728-263.903 162.274-162.404 263.692 263.903 81.156-81.184-283.989-284.218c-16.231-16.245-37.823-25.199-60.858-25.199-22.997 0-44.626 8.955-60.858 25.199v0l-202.835 202.997c-16.231 16.245-25.142 37.891-25.142 60.906s8.911 44.663 25.142 60.906v0l283.989 284.18zM643.551 661.264l81.119-81.184-344.256-344.532-81.119 81.221 344.256 344.495zM674.261 935.62c32.463 32.488 89.252 32.488 121.715 0v0l202.835-202.997c16.231-16.245 25.178-37.854 25.178-60.906s-8.948-44.663-25.178-60.906v0l-284.026-284.18-81.081 81.184 263.692 263.903-162.274 162.404-263.692-263.94-81.119 81.221z" />
<glyph unicode="&#xe93d;" glyph-name="linkedin" d="M85.334 959.995h853.314c47.126 0 85.331-38.204 85.331-85.331v-853.315c0-47.126-38.206-85.331-85.331-85.331h-853.314c-47.127 0-85.331 38.206-85.331 85.331v853.315c0 47.127 38.204 85.331 85.331 85.331zM314.065 732.29c0.32 47.679-35.999 84.398-86.078 85.518-49.359 1.12-87.358-37.519-87.598-85.598-0.24-51.119 39.439-87.358 84.958-87.598 48.319-0.24 89.038 33.279 88.718 87.678zM527.903 575.337h-143.437v-486.952h151.514v11.361c0 21.612-0.017 43.228-0.035 64.852-0.045 57.672-0.097 115.408 0.199 173.064 0.080 14 0.717 28.558 4.317 41.92 13.517 49.919 58.401 82.157 108.479 74.233 32.158-5.035 53.435-23.677 62.395-53.997 5.524-18.956 8.004-39.355 8.242-59.117 0.648-59.596 0.557-119.191 0.467-178.792-0.035-21.037-0.068-42.086-0.068-63.123v-10.32h151.998v11.678c0 25.713-0.012 51.42-0.028 77.128-0.028 64.255-0.063 128.509 0.108 192.786 0.080 29.041-3.037 57.679-10.16 85.758-10.638 41.762-32.637 76.321-68.396 101.276-25.361 17.761-53.201 29.202-84.319 30.482-3.544 0.148-7.117 0.34-10.706 0.535-15.912 0.86-32.085 1.733-47.296-1.335-43.519-8.72-81.753-28.641-110.635-63.757-3.356-4.028-6.639-8.118-11.537-14.222l-1.104-1.383v67.924zM152.555 88.225h150.797v486.793h-150.797v-486.793z" />
<glyph unicode="&#xe93e;" glyph-name="lock" d="M362.655 550.407v153.589c0 84.697 66.981 153.589 149.327 153.589s149.361-68.892 149.361-153.589v-153.589h-298.688zM511.984 217.626c-41.222 0-74.648 34.381-74.648 76.778 0 42.431 33.426 76.81 74.648 76.81 41.254 0 74.68-34.381 74.68-76.81 0-42.398-33.426-76.778-74.68-76.778v0zM885.32 550.407h-124.435v153.589c0 141.149-111.667 256.002-248.901 256.002s-248.901-114.853-248.901-256.002v-153.589h-124.403c-13.698 0-24.893-11.548-24.893-25.603v-179.192c0-226.208 178.263-409.591 398.198-409.591s398.23 183.383 398.23 409.591v179.192c0 14.056-11.196 25.603-24.893 25.603v0z" />
<glyph unicode="&#xe93f;" glyph-name="microphone-mute" d="M150.872 893.794l792.285-819.178-70.013-72.425-153.971 159.204c-45.314-35.14-99.084-58.963-157.64-67.706v0-55.3l99.019-102.384h-297.091l99.019 102.384v55.3c-167.692 24.977-297.091 174.118-297.091 354.306v0h99.051c0-141.155 111.051-256.011 247.565-256.011 50.388 0 97.2 15.771 136.323 42.631v0l-72.534 74.998c-19.37-9.635-40.942-15.211-63.789-15.211-81.692 0-148.545 69.126-148.545 153.594v0 81.202l-282.603 292.175 70.013 72.425zM858.632 447.996c0-52.033-11.009-101.362-30.38-146.005v0l-77.32 79.949c5.457 21.117 8.647 43.191 8.647 66.057v0zM512.013 959.979c81.692 0 148.545-69.092 148.545-153.594v0-330.978l-297.091 307.188v23.79c0 84.501 66.854 153.594 148.545 153.594z" />
<glyph unicode="&#xe940;" glyph-name="microphone-on" d="M255.996 448.005c0-141.153 114.853-256.008 256.004-256.008s256.004 114.856 256.004 256.008v0h102.382c0-180.186-133.792-329.323-307.178-354.301v0-55.3l102.382-102.383h-307.178l102.382 102.383v55.3c-173.352 24.977-307.178 174.115-307.178 354.301v0zM512.006 959.98c84.466 0 153.589-69.092 153.589-153.591v0-358.392c0-84.467-69.123-153.591-153.589-153.591s-153.589 69.124-153.589 153.591v0 358.392c0 84.501 69.123 153.591 153.589 153.591z" />
<glyph unicode="&#xe941;" glyph-name="more-horizontal" d="M256.012 448c0-70.388-57.573-127.993-128.014-127.993-70.399 0-127.974 57.605-127.974 127.993s57.573 127.993 127.974 127.993c70.441 0 128.014-57.605 128.014-127.993zM639.993 448c0-70.388-57.573-127.993-128.014-127.993-70.399 0-127.974 57.605-127.974 127.993s57.573 127.993 127.974 127.993c70.441 0 128.014-57.605 128.014-127.993zM1023.974 448c0-70.388-57.573-127.993-128.014-127.993-70.399 0-127.974 57.605-127.974 127.993s57.573 127.993 127.974 127.993c70.441 0 128.014-57.605 128.014-127.993z" />
<glyph unicode="&#xe942;" glyph-name="more-vertical" d="M512 192.015c70.39 0 127.996-57.575 127.996-128.017 0-70.401-57.606-127.977-127.996-127.977s-127.996 57.575-127.996 127.977c0 70.443 57.606 128.017 127.996 128.017zM512 576.005c70.39 0 127.996-57.575 127.996-128.017 0-70.401-57.606-127.977-127.996-127.977s-127.996 57.575-127.996 127.977c0 70.443 57.606 128.017 127.996 128.017zM512 959.996c70.39 0 127.996-57.575 127.996-128.017 0-70.401-57.606-127.977-127.996-127.977s-127.996 57.575-127.996 127.977c0 70.443 57.606 128.017 127.996 128.017z" />
<glyph unicode="&#xe943;" glyph-name="train" d="M90.373 230.23v549.049c0 39.302 11.294 70.904 33.882 94.807s53.184 42.203 91.793 54.902c38.61 12.71 83.493 21.050 134.651 25.025 51.167 3.975 104.934 5.963 161.303 5.963 58.535 0 113.306-1.988 164.313-5.963 50.996-3.975 95.63-12.317 133.897-25.025 38.258-12.7 68.395-30.999 90.414-54.902 21.997-23.903 33-55.505 33-94.807v-549.049c0-48.416-16.85-89.475-50.563-123.175-33.699-33.71-74.758-50.566-123.173-50.566l71.812-71.814c9.345-9.343 11.625-19.785 6.837-31.328-4.788-11.553-13.823-17.326-27.105-17.326-3.946 0-7.634 0.679-11.068 2.038-3.433 1.338-6.505 3.365-9.216 6.063l-112.349 112.367h-333.597l-112.349-112.367c-2.71-2.696-5.782-4.725-9.216-6.063-3.433-1.359-7.123-2.038-11.068-2.038-13.050 0-22.024 5.771-26.924 17.326-4.91 11.543-2.691 21.986 6.655 31.328l71.813 71.814c-48.417 0-89.476 16.856-123.176 50.566-33.71 33.7-50.566 74.759-50.566 123.175zM512 899.744c-117.995 0-203.901-7.821-257.719-23.461-53.828-15.63-86.303-38.699-97.427-69.207h711.675c-10.428 30.97-42.613 54.154-96.552 69.554-53.938 15.41-140.598 23.114-259.978 23.114zM150.605 478.115h331.277v268.728h-331.277v-268.728zM542.116 478.115h331.279v268.728h-331.279v-268.728zM301.186 200.114c19.154 0 35.14 6.409 47.96 19.229s19.229 28.807 19.229 47.961c0 19.154-6.411 35.14-19.229 47.96s-28.806 19.229-47.96 19.229c-19.154 0-35.14-6.411-47.96-19.229s-19.229-28.806-19.229-47.96c0-19.154 6.409-35.14 19.229-47.961s28.806-19.229 47.96-19.229zM722.813 200.114c19.154 0 35.14 6.409 47.96 19.229s19.229 28.807 19.229 47.961c0 19.154-6.409 35.14-19.229 47.96s-28.806 19.229-47.96 19.229c-19.154 0-35.14-6.411-47.96-19.229s-19.229-28.806-19.229-47.96c0-19.154 6.411-35.14 19.229-47.961s28.806-19.229 47.96-19.229zM264.113 116.721h495.773c31.501 0 58.295 11.042 80.379 33.128s33.128 48.877 33.128 80.379v187.654h-722.789v-187.654c0-31.502 11.042-58.295 33.127-80.379s48.879-33.128 80.381-33.128z" />
<glyph unicode="&#xe944;" glyph-name="pause" d="M307.822 959.971c18.405 0 33.528-14.435 33.528-32.004v-959.934c0-17.569-15.123-32.004-33.528-32.004h-201.125c-18.45 0-33.528 14.435-33.528 32.004v959.934c0 17.569 15.080 32.004 33.528 32.004h201.125zM917.304 959.971c18.45 0 33.528-14.435 33.528-32.004v-959.934c0-17.569-15.080-32.004-33.528-32.004h-201.125c-18.405 0-33.528 14.435-33.528 32.004v959.934c0 17.569 15.123 32.004 33.528 32.004h201.125z" />
<glyph unicode="&#xe945;" glyph-name="checkbook" d="M219.539 363.57h415.678c9.146 0 16.006 2.84 20.578 8.519 4.573 5.671 6.859 11.912 6.859 18.726s-2.285 13.12-6.859 18.918c-4.572 5.808-11.432 8.712-20.578 8.712h-415.678c-7.773 0-14.29-2.634-19.549-7.902s-7.888-11.794-7.888-19.578c0-7.784 2.629-14.294 7.888-19.535s11.776-7.861 19.549-7.861zM219.539 583.070h219.501c7.773 0 14.29 2.634 19.549 7.902s7.888 11.794 7.888 19.578c0 7.784-2.629 14.294-7.888 19.535s-11.776 7.861-19.549 7.861h-219.501c-7.773 0-14.29-2.634-19.549-7.902s-7.888-11.793-7.888-19.576c0-7.784 2.629-14.295 7.888-19.536s11.776-7.861 19.549-7.861zM88.69 171.507c-24.384 0-45.254 8.679-62.613 26.038s-26.038 38.229-26.038 62.613v481.199c0 24.384 8.679 45.254 26.038 62.613s38.229 26.038 62.613 26.038h810.448c24.384 0 45.259-8.679 62.617-26.038s26.035-38.229 26.035-62.613v-97.074c0-7.775-2.634-14.29-7.902-19.549s-11.794-7.888-19.578-7.888c-7.784 0-14.29 2.63-19.539 7.888-5.238 5.259-7.853 11.776-7.853 19.549v97.074c0 9.85-3.165 17.944-9.494 24.283-6.339 6.329-14.438 9.493-24.286 9.493h-810.448c-9.85 0-17.944-3.165-24.283-9.493-6.329-6.338-9.493-14.433-9.493-24.283v-481.199c0-9.85 3.165-17.944 9.493-24.282 6.338-6.329 14.433-9.494 24.283-9.494h393.619c7.775 0 14.29-2.634 19.549-7.902s7.888-11.793 7.888-19.576c0-7.784-2.629-14.295-7.888-19.536-5.259-5.237-11.776-7.861-19.549-7.861h-393.619zM1018.179 503.295c3.862-3.96 5.799-8.308 5.799-13.047 0-4.747-1.986-9.105-5.956-13.074l-42.891-42.899-43.275 43.268 42.94 42.899c3.981 3.97 8.355 5.954 13.121 5.954s9.092-1.934 12.964-5.803l17.299-17.3zM944.319 401.35l-327.361-327.361c-2.715-2.664-5.775-4.669-9.178-6.005s-6.918-2.005-10.55-2.005h-16.778c-3.942 0-7.39 1.484-10.344 4.432-2.953 2.958-4.431 6.399-4.431 10.35v16.778c0 3.627 0.668 7.146 2.003 10.546s3.338 6.458 6.009 9.179l327.356 327.356 43.275-43.268z" />
<glyph unicode="&#xe946;" glyph-name="phone" d="M974.947 457.6c-11.942 0-22.525 4.27-31.732 12.817-9.218 8.552-14.56 19.153-16.030 31.79-12.888 96.005-53.322 177.994-121.304 245.966-67.982 67.982-149.972 108.419-245.968 121.304-12.639 1.487-23.238 6.691-31.79 15.613-8.546 8.921-12.817 19.702-12.817 32.341s4.419 23.226 13.263 31.761c8.845 8.545 19.289 12.014 31.344 10.409 121.084-13.114 224.313-62.352 309.687-147.713 85.356-85.37 134.598-188.597 147.713-309.681 1.606-12.044-1.886-22.495-10.467-31.344-8.588-8.845-19.218-13.263-31.897-13.263zM728.859 457.6c-9.695 0-18.272 3.313-25.736 9.944-7.476 6.631-13.085 15.482-16.82 26.545-9.082 32.178-25.724 60.56-49.932 85.154s-52.399 41.233-84.577 49.917c-11.062 3.737-19.908 9.333-26.539 16.788s-9.95 16.401-9.95 26.839c0 14.92 5.127 26.953 15.375 36.103 10.259 9.15 21.906 12.123 34.943 8.921 52.084-12.093 96.959-36.984 134.627-74.674 37.667-37.678 62.761-82.748 75.27-135.207 3.199-13.043-0.042-24.695-9.737-34.943-9.695-10.259-22.007-15.387-36.923-15.387zM954.398-63.974c-112.085 0-224.688 26.064-337.813 78.183-113.121 52.121-217.050 125.645-311.798 220.571-94.737 94.938-168.168 198.875-220.289 311.811-52.123 112.928-78.183 225.435-78.183 337.519 0 18.012 5.948 33.020 17.844 45.025s26.765 18.007 44.609 18.007h193.985c15.018 0 28.266-4.901 39.745-14.705 11.479-9.793 18.78-21.897 21.903-36.311l34.094-174.997c2.361-16.238 1.861-30.19-1.487-41.857-3.359-11.666-9.387-21.466-18.081-29.397l-137.364-133.719c22.105-40.486 47.364-78.784 75.774-114.898 28.4-36.103 59.15-70.582 92.249-103.443 32.635-32.647 67.329-62.957 104.086-90.94s76.446-54.029 119.074-78.124l133.468 134.627c9.307 9.682 20.58 16.476 33.813 20.371 13.222 3.884 26.967 4.836 41.236 2.855l165.152-33.634c15.018-3.967 27.276-11.627 36.775-22.989 9.493-11.359 14.245-24.249 14.245-38.66v-192.844c0-17.844-6.007-32.713-18.009-44.609s-27.014-17.844-45.025-17.844zM159.349 600.566l106.152 101.572c1.903 1.526 3.142 3.623 3.718 6.29s0.481 5.145-0.283 7.434l-25.857 132.916c-0.764 3.043-2.097 5.329-3.999 6.854s-4.381 2.29-7.434 2.29h-127.193c-2.29 0-4.199-0.762-5.725-2.29-1.517-1.526-2.275-3.435-2.275-5.725 3.043-40.642 9.695-81.93 19.955-123.861 10.25-41.941 24.564-83.768 42.942-125.482zM676.805 86.551c39.421-18.379 80.539-32.433 123.356-42.157 42.823-9.712 82.835-15.488 120.037-17.321 2.29 0 4.199 0.761 5.728 2.29 1.522 1.522 2.29 3.432 2.29 5.722v125.128c0 3.051-0.767 5.531-2.29 7.434-1.529 1.903-3.812 3.235-6.857 3.996l-124.902 25.397c-2.29 0.761-4.295 0.856-6.007 0.286-1.713-0.577-3.527-1.814-5.442-3.718l-105.912-107.060z" />
<glyph unicode="&#xe947;" glyph-name="pin" d="M512.001 15.231c108.634 97.25 191.764 190.528 249.393 279.835 57.631 89.31 86.445 167.531 86.445 234.664 0 101.23-32.16 184.449-96.482 249.657-64.319 65.211-144.106 97.815-239.356 97.815s-175.037-32.604-239.356-97.815c-64.322-65.208-96.482-148.427-96.482-249.657 0-67.133 28.816-145.354 86.445-234.664 57.628-89.307 140.761-182.586 249.393-279.835zM512.001-63.994c-10.819 0-21.637 1.864-32.456 5.595-10.829 3.739-20.62 9.521-29.374 17.352-49.828 45.921-96.46 93.214-139.893 141.874-43.423 48.654-81.168 97.292-113.237 145.918-32.076 48.624-57.459 96.818-76.143 144.583-18.685 47.775-28.028 93.908-28.028 138.405 0 128.143 41.449 231.883 124.342 311.225 82.905 79.342 181.166 119.013 294.789 119.013s211.886-39.671 294.789-119.013c82.896-79.342 124.342-183.082 124.342-311.225 0-44.497-9.341-90.54-28.028-138.126-18.685-47.599-43.974-95.799-75.864-144.597-31.903-48.801-69.564-97.44-112.987-145.918-43.423-48.486-90.055-95.684-139.891-141.598-8.626-7.828-18.431-13.702-29.418-17.616-10.975-3.915-21.954-5.871-32.942-5.871zM512.1 439.928c27.623 0 51.242 9.838 70.855 29.514 19.621 19.674 29.43 43.327 29.43 70.951s-9.84 51.249-29.514 70.869c-19.677 19.61-43.332 29.415-70.966 29.415-27.626 0-51.245-9.838-70.855-29.512-19.621-19.677-29.43-43.332-29.43-70.966 0-27.626 9.838-51.245 29.514-70.855 19.674-19.613 43.329-29.418 70.966-29.418z" />
<glyph unicode="&#xe948;" glyph-name="pinterest" d="M536.001 959.987c-279.48 0-420.342-200.315-420.342-367.414 0-101.181 38.207-191.163 120.381-224.699 13.44-5.503 25.6-0.192 29.44 14.719 2.752 10.303 9.151 36.352 12.031 47.231 3.904 14.719 2.431 19.903-8.448 32.767-23.68 27.967-38.783 64.062-38.783 115.325 0 148.669 111.165 281.721 289.529 281.721 157.947 0 244.729-96.509 244.729-225.402 0-169.596-75.070-312.76-186.492-312.76-61.566 0-107.517 50.943-92.798 113.342 17.664 74.494 51.903 154.876 51.903 208.699 0 48.126-25.792 88.318-79.294 88.318-62.91 0-113.469-65.086-113.469-152.252 0-55.551 18.816-93.053 18.816-93.053s-64.383-272.761-75.711-320.504c-22.463-95.165-3.391-211.771-1.728-223.547 0.895-6.976 9.919-8.64 14.016-3.328 5.695 7.552 80.638 100.029 106.173 192.444 7.168 26.176 41.343 161.724 41.343 161.724 20.479-39.040 80.189-73.342 143.677-73.342 189.051 0 317.368 172.347 317.368 403.062 0 174.459-147.772 336.951-372.343 336.951z" />
<glyph unicode="&#xe949;" glyph-name="play" d="M868.631 470.255l-3.358 2.419-675.676 484.878c-3.682 1.558-7.647 2.419-11.895 2.419-17.315 0-31.395-14.223-31.395-31.807v-960.328c0-17.584 14.079-31.807 31.395-31.807 4.248 0 8.213 0.902 11.895 2.419l679.034 487.297c5.542 5.737 9.063 13.566 9.063 22.255s-3.519 16.518-9.063 22.255z" />
<glyph unicode="&#xe94a;" glyph-name="plus" d="M438.86 374.863h-438.831v146.277h438.831v438.831h146.281v-438.831h438.831v-146.277h-438.831v-438.831h-146.281v438.831z" />
<glyph unicode="&#xe94b;" glyph-name="printer" d="M796.424 163.576v-227.553h-568.867v227.553h568.867zM767.976 959.996c15.654 0 28.448-12.795 28.448-28.448v0-312.864h199.105c15.654 0 28.448-12.795 28.448-28.448v0-511.969c0-15.654-12.795-28.448-28.448-28.448v0h-142.207v142.207c0 15.618-12.831 28.412-28.448 28.412v0h-625.765c-15.618 0-28.448-12.795-28.448-28.412v0-142.207h-142.207c-15.654 0-28.448 12.795-28.448 28.448v0 511.969c0 15.654 12.795 28.448 28.448 28.448v0h199.105v312.864c0 15.654 12.795 28.448 28.448 28.448v0zM910.183 504.925h-113.795v-56.898h113.795v56.898zM739.526 903.099h-455.108v-284.415h455.108v284.415z" />
<glyph unicode="&#xe94c;" glyph-name="refresh" d="M341.331 334.229l-137.806-137.842c74.494-91.21 186.93-146.603 308.458-146.603 109.797 0 209.329 44.689 281.44 116.799 46.156 46.118 80.835 103.564 100.009 167.646v0h117.35c-21.776-95.499-69.947-181.099-136.925-248.077-92.677-92.749-220.693-150.123-361.872-150.123-152.25 0-293.648 67.455-389.403 179.413v0l-122.554-122.517v341.303h341.305zM511.981 959.978c152.286 0 293.684-67.455 389.44-179.451v0l122.554 122.554v-341.303h-341.305l137.806 137.842c-74.494 91.21-186.93 146.603-308.494 146.603-109.76 0-209.292-44.689-281.402-116.799-46.558-46.522-81.422-102.977-100.448-167.646v0h-117.020c21.702 95.793 69.947 180.99 137.035 248.077 92.677 92.713 220.693 150.123 361.834 150.123z" />
<glyph unicode="&#xe94d;" glyph-name="repeat" d="M1023.978 511.993c0-247.009-178.65-447.991-398.213-447.991v0h-284.417v-127.98l-170.658 191.991 170.658 191.991v-127.98h284.417c156.836 0 284.453 143.528 284.453 319.97v0zM682.67 959.996l170.658-191.991-170.658-192.031v128.020h-284.453c-156.836 0-284.417-143.528-284.417-319.97v0h-113.796c0 247.009 178.65 447.991 398.213 447.991v0h284.453v127.98z" />
<glyph unicode="&#xe94e;" glyph-name="return" d="M691.188 732.44h-486.384v170.66l-204.802-227.523 204.802-227.56v170.66h486.384c127.065 0 230.407-114.824 230.407-256.009s-103.342-256.009-230.407-256.009h-486.384v-113.761h486.384c183.52 0 332.791 165.895 332.791 369.77 0 203.913-149.271 369.77-332.791 369.77z" />
<glyph unicode="&#xe94f;" glyph-name="apple" d="M925.184 162.005c-15.486-35.775-33.814-68.707-55.052-98.983-28.949-41.273-52.652-69.844-70.92-85.71-28.316-26.042-58.655-39.376-91.143-40.136-23.324 0-51.451 6.637-84.193 20.1-32.848 13.399-63.035 20.036-90.637 20.036-28.949 0-59.997-6.637-93.205-20.036-33.258-13.463-60.052-20.48-80.539-21.173-31.154-1.329-62.207 12.388-93.203 41.209-19.785 17.257-44.528 46.836-74.174 88.743-31.805 44.75-57.954 96.644-78.44 155.805-21.939 63.903-32.937 125.781-32.937 185.689 0 68.624 14.829 127.812 44.529 177.409 23.343 39.839 54.396 71.267 93.262 94.336 38.864 23.072 80.861 34.828 126.084 35.579 24.745 0 57.196-7.654 97.521-22.697 40.212-15.095 66.032-22.75 77.352-22.75 8.465 0 37.147 8.951 85.774 26.795 45.981 16.548 84.79 23.398 116.585 20.7 86.152-6.953 150.873-40.912 193.919-102.097-77.051-46.685-115.164-112.073-114.404-195.954 0.695-65.337 24.397-119.708 70.981-162.877 21.111-20.038 44.686-35.523 70.917-46.521-5.69-16.497-11.693-32.298-18.078-47.468zM727.6 939.512c0-51.211-18.709-99.026-56.001-143.284-45.004-52.614-99.437-83.016-158.465-78.219-0.753 6.144-1.188 12.61-1.188 19.405 0 49.162 21.402 101.775 59.408 144.795 18.974 21.781 43.107 39.891 72.372 54.339 29.201 14.232 56.822 22.102 82.8 23.45 0.759-6.846 1.075-13.693 1.075-20.485v-0.001z" />
<glyph unicode="&#xe950;" glyph-name="rotate-clockwise" d="M1023.974 561.778h-341.303l137.804 137.842c-74.492 91.246-186.93 146.603-308.456 146.603-109.76 0-209.328-44.651-281.438-116.799-72.11-72.11-116.762-171.642-116.762-281.402 0-219.593 178.644-398.2 398.2-398.2 108.22 0 208.411 44.102 281.291 116.835l80.396-80.358c-93.777-93.519-222.599-150.268-361.687-150.268-282.355 0-511.993 229.674-511.993 511.993 0 141.141 57.446 269.157 150.123 361.833 92.713 92.713 220.693 150.123 361.87 150.123 152.248 0 293.646-67.455 389.401-179.451l122.554 122.59v-341.341z" />
<glyph unicode="&#xe951;" glyph-name="rotate-counter-clockwise" d="M0.004 561.786h341.312l-137.808 137.845c74.494 91.249 186.934 146.606 308.464 146.606 109.763 0 209.333-44.652 281.445-116.802 72.112-72.112 116.765-171.647 116.765-281.409 0-219.599-178.648-398.21-398.21-398.21-108.222 0-208.417 44.103-281.298 116.838l-80.398-80.36c93.779-93.521 222.605-150.272 361.696-150.272 282.362 0 512.006 229.68 512.006 512.006 0 141.145-57.447 269.164-150.127 361.842-92.716 92.716-220.698 150.127-361.879 150.127-152.252 0-293.654-67.456-389.411-179.455l-122.557 122.593v-341.349z" />
<glyph unicode="&#xe952;" glyph-name="threads" d="M757.035 485.403c-4.412 2.114-8.892 4.149-13.431 6.097-7.904 145.634-87.481 229.011-221.099 229.865-0.606 0.002-1.207 0.002-1.813 0.002-79.922 0-146.392-34.113-187.304-96.192l73.486-50.41c30.563 46.369 78.529 56.255 113.852 56.255 0.41 0 0.819 0 1.222-0.004 43.997-0.279 77.196-13.073 98.682-38.017 15.637-18.161 26.097-43.259 31.274-74.932-39.007 6.63-81.194 8.67-126.291 6.084-127.038-7.317-208.709-81.411-203.225-184.364 2.784-52.223 28.8-97.15 73.256-126.5 37.584-24.809 85.994-36.942 136.303-34.196 66.44 3.644 118.56 28.994 154.922 75.344 27.616 35.199 45.083 80.816 52.795 138.291 31.662-19.108 55.131-44.255 68.089-74.484 22.039-51.385 23.324-135.827-45.576-204.669-60.368-60.308-132.932-86.399-242.597-87.205-121.649 0.902-213.649 39.916-273.465 115.955-56.012 71.205-84.961 174.051-86.041 305.687 1.080 131.635 30.027 234.483 86.041 305.687 59.816 76.041 151.816 115.053 273.463 115.956 122.53-0.911 216.135-40.11 278.239-116.518 30.452-37.469 53.413-84.59 68.549-139.531l86.115 22.976c-18.347 67.626-47.216 125.9-86.501 174.228-79.619 97.957-196.065 148.151-346.102 149.192h-0.602c-149.731-1.037-264.875-51.422-342.226-149.753-68.833-87.504-104.339-209.256-105.532-361.877l-0.004-0.361 0.004-0.361c1.193-152.618 36.699-274.376 105.532-361.88 77.352-98.328 192.495-148.716 342.226-149.751h0.602c133.12 0.924 226.953 35.775 304.253 113.005 101.133 101.039 98.089 227.687 64.756 305.435-23.915 55.756-69.507 101.039-131.853 130.946zM527.189 269.307c-55.679-3.136-113.523 21.856-116.376 75.387-2.114 39.69 28.247 83.978 119.793 89.252 10.483 0.606 20.772 0.9 30.879 0.9 33.251 0 64.36-3.23 92.642-9.414-10.549-131.74-72.426-153.132-126.94-156.125z" />
<glyph unicode="&#xe953;" glyph-name="search" d="M113.818 504.877c0 188.212 153.091 341.303 341.303 341.303s341.341-153.091 341.341-341.303c0-188.212-153.129-341.341-341.341-341.341s-341.303 153.129-341.303 341.341v0zM1023.974 16.458l-209.805 209.805c59.976 77.059 96.049 173.621 96.049 278.615 0 250.937-204.159 455.096-455.096 455.096s-455.096-204.159-455.096-455.096c0-250.937 204.159-455.096 455.096-455.096 104.995 0 201.519 36.111 278.615 96.049l209.805-209.805 80.432 80.432z" />
<glyph unicode="&#xe954;" glyph-name="send" d="M1023.991 448l-1024 455.111 76.812-341.315 511.984-113.796-511.984-113.796-76.812-341.315z" />
<glyph unicode="&#xe955;" glyph-name="share" d="M791.995 21.331c-46.374 0-84.014 38.201-84.014 85.346 0 47.109 37.64 85.31 84.014 85.31s84.014-38.201 84.014-85.31c0-47.145-37.64-85.346-84.014-85.346zM232.005 362.681c-46.41 0-84.014 38.201-84.014 85.31s37.604 85.346 84.014 85.346c46.374 0 84.014-38.237 84.014-85.346s-37.64-85.31-84.014-85.31zM791.995 874.649c46.374 0 84.014-38.237 84.014-85.346s-37.64-85.31-84.014-85.31c-46.374 0-84.014 38.201-84.014 85.31s37.64 85.346 84.014 85.346zM791.995 277.334c-40.635 0-77.952-14.701-107.003-39.118l-288.35 175.752c2.202 10.998 3.357 22.4 3.357 34.021 0 11.658-1.155 23.023-3.357 34.021l288.35 175.752c29.051-24.416 66.367-39.118 107.003-39.118 92.785 0 167.993 76.401 167.993 170.657s-75.21 170.693-167.993 170.693c-92.785 0-167.993-76.438-167.993-170.693 0-11.622 1.155-23.023 3.357-34.021l-288.35-175.716c-29.051 24.416-66.367 39.080-107.003 39.080-92.785 0-167.993-76.401-167.993-170.657s75.21-170.657 167.993-170.657c40.635 0 77.952 14.701 107.003 39.118l288.35-175.752c-2.202-10.998-3.357-22.4-3.357-34.021 0-94.255 75.21-170.657 167.993-170.657s167.993 76.401 167.993 170.657c0 94.219-75.21 170.657-167.993 170.657z" />
<glyph unicode="&#xe956;" glyph-name="whatsapp" d="M2.434-63.982l71.978 262.951c-44.415 76.97-67.754 164.221-67.711 253.692 0.128 279.718 227.751 507.34 507.426 507.34 135.721-0.043 263.121-52.906 358.949-148.818 95.785-95.913 148.52-223.399 148.477-358.991-0.128-279.76-227.751-507.383-507.426-507.383-84.906 0.043-168.573 21.333-242.684 61.78l-269.008-70.57zM283.901 98.447c71.508-42.452 139.774-67.882 230.055-67.924 232.444 0 421.796 189.181 421.924 421.753 0.085 233.041-188.37 421.966-421.582 422.052-232.615 0-421.838-189.181-421.924-421.71-0.043-94.931 27.776-166.013 74.495-240.38l-42.623-155.645 159.656 41.855zM769.738 331.574c-3.157 5.291-11.605 8.448-24.32 14.805-12.672 6.357-75.007 37.034-86.655 41.258-11.605 4.224-20.053 6.357-28.544-6.357-8.448-12.672-32.767-41.258-40.148-49.706s-14.805-9.515-27.477-3.157c-12.672 6.357-53.546 19.712-101.971 62.932-37.674 33.62-63.146 75.135-70.527 87.85-7.381 12.672-0.768 19.541 5.547 25.856 5.717 5.675 12.672 14.805 19.029 22.229 6.443 7.339 8.533 12.629 12.8 21.12 4.224 8.448 2.133 15.872-1.067 22.229-3.2 6.315-28.544 68.735-39.082 94.121-10.325 24.704-20.779 21.376-28.544 21.76l-24.32 0.427c-8.448 0-22.187-3.157-33.791-15.872s-44.372-43.348-44.372-105.769c0-62.42 45.439-122.707 51.754-131.155 6.357-8.448 89.385-136.531 216.572-191.442 30.25-13.056 53.887-20.864 72.276-26.709 30.378-9.643 58.026-8.277 79.871-5.035 24.363 3.627 75.007 30.676 85.588 60.287 10.581 29.652 10.581 55.039 7.381 60.33z" />
<glyph unicode="&#xe957;" glyph-name="shuffle" d="M588.082 370.925l51.837-78.49c23.609-35.835 84.648-68.421 128.055-68.421v0h85.346v112.014l170.654-168.021-170.654-167.985v111.978h-85.346c-82.485 0-178.573 51.351-223.445 119.412v0l-24.306 36.772 67.858 102.74zM853.335 895.978l170.618-167.985-170.618-168.021v112.014h-85.346c-43.406 0-104.446-32.586-128.092-68.421v0l-245.736-372.166c-44.945-68.061-140.996-119.376-223.483-119.376v0h-170.654v111.978h170.654c43.406 0 104.446 32.623 128.092 68.421v0l245.736 372.166c44.909 68.061 140.996 119.412 223.483 119.412v0h85.346v111.978zM170.688 783.981c82.413 0 178.536-51.315 223.483-119.376v0l24.269-36.808-67.822-102.74-51.837 78.526c-23.682 35.799-84.722 68.421-128.092 68.421v0h-170.654v111.978z" />
<glyph unicode="&#xe958;" glyph-name="messenger" d="M0.026 463.376c0 285.298 223.605 496.615 511.974 496.615s511.974-211.445 511.974-496.743c0-285.298-223.605-496.615-511.974-496.615-51.837 0-101.499 6.912-148.216 19.711-9.088 2.432-18.815 1.792-27.391-2.048l-101.627-44.798c-6.138-2.707-12.846-3.866-19.536-3.373-6.692 0.491-13.158 2.62-18.834 6.197s-10.384 8.493-13.715 14.316c-3.331 5.824-5.18 12.377-5.385 19.082l-2.816 91.131c-0.256 11.263-5.376 21.759-13.695 29.183-99.579 89.083-160.76 218.101-160.76 367.341zM354.952 556.683l-150.392-238.58c-14.463-22.911 13.695-48.638 35.198-32.254l161.528 122.618c5.316 4.036 11.801 6.234 18.474 6.257 6.675 0.021 13.174-2.129 18.516-6.129l119.674-89.723c8.489-6.374 18.207-10.92 28.541-13.349s21.059-2.692 31.499-0.768c10.44 1.926 20.366 5.993 29.155 11.948s16.246 13.665 21.904 22.649l150.52 238.452c14.335 22.911-13.823 48.766-35.326 32.382l-161.528-122.618c-5.314-4.036-11.798-6.234-18.474-6.257-6.673-0.021-13.172 2.129-18.516 6.129l-119.674 89.723c-8.489 6.374-18.205 10.92-28.541 13.349-10.333 2.43-21.059 2.692-31.497 0.766-10.44-1.924-20.368-5.993-29.157-11.946-8.787-5.954-16.246-13.665-21.904-22.649z" />
<glyph unicode="&#xe959;" glyph-name="star" d="M511.991 959.996l142.213-398.21h369.775l-312.876-227.553 117.32-398.21-316.43 227.553-316.43-227.553 117.32 398.21-312.876 227.553h369.775z" />
<glyph unicode="&#xe95a;" glyph-name="stopwatch" d="M561.785 960.009l99.54-102.387h-99.54v-105.951c72.529-9.371 138.932-38.869 194.011-82.919v0l69.449 71.469 70.38-72.427-69.481-71.436c52.512-69.357 84.077-156.269 84.077-250.737 0-225.859-178.645-409.613-398.223-409.613s-398.223 183.755-398.223 409.613c0 208.469 152.308 380.708 348.436 406.049v0 105.951h-99.54l99.54 102.387h99.572zM512 652.816c-164.691 0-298.651-137.824-298.651-307.193 0-169.435 133.96-307.227 298.651-307.227s298.683 137.792 298.683 307.227c0 169.369-133.992 307.193-298.683 307.193zM561.764 550.406l0.017-116.091c29.753-17.713 49.775-50.809 49.775-88.707 0-56.555-44.589-102.42-99.572-102.42-54.951 0-99.54 45.864-99.54 102.42 0 37.873 19.996 70.951 49.708 88.673l0.039 116.124h99.572z" />
<glyph unicode="&#xe95b;" glyph-name="tick-circle" d="M511.982 959.978c282.281 0 511.993-229.674 511.993-511.956s-229.71-511.993-511.993-511.993c-282.281 0-511.956 229.71-511.956 511.993s229.674 511.956 511.956 511.956zM511.982 846.222c-219.556 0-398.2-178.644-398.2-398.2s178.644-398.2 398.2-398.2c219.593 0 398.2 178.644 398.2 398.2s-178.606 398.2-398.2 398.2zM642.406 602.015l80.468-80.432-267.763-267.763-154.008 153.972 80.468 80.432 73.54-73.54 187.296 187.332z" />
<glyph unicode="&#xe95c;" glyph-name="tick" d="M354.771 64.010l-354.767 363.361 80.837 82.703 273.931-280.545 588.371 602.461 80.837-82.778z" />
<glyph unicode="&#xe95d;" glyph-name="trolley" d="M370.698 163.575c62.988 0 114.068-50.957 114.068-113.793 0-62.799-51.080-113.757-114.068-113.757s-114.068 50.957-114.068 113.757c0 62.835 51.080 113.793 114.068 113.793zM798.367 163.575c62.988 0 114.068-50.957 114.068-113.793 0-62.799-51.080-113.757-114.068-113.757s-114.068 50.957-114.068 113.757c0 62.835 51.080 113.793 114.068 113.793zM142.611 959.974c40.717 0 79.193-28.119 91.467-66.832v0l14.993-46.925h713.253c21.645 0 41.269-10.741 52.514-28.668 11.171-18.001 12.164-40.289 2.61-59.683v0l-164.891-328.951c-11.098-22.473-35.83-37.797-61.297-37.797v0h-396.995l18.118-56.897h500.039v-113.757h-513.194c-40.754 0-79.23 28.119-91.504 66.832v0l-178.303 558.921h-129.392v113.757z" />
<glyph unicode="&#xe95e;" glyph-name="tiktok" d="M717.751 959.983h-172.57v-697.482c0-83.105-66.37-151.37-148.968-151.37-82.595 0-148.968 68.265-148.968 151.37 0 81.618 64.896 148.4 144.543 151.368v175.113c-175.518-2.967-317.111-146.918-317.111-326.481 0-181.052 144.543-326.483 323.012-326.483 178.464 0 323.010 146.916 323.010 326.483v357.646c64.898-47.488 144.543-75.686 228.615-77.17v175.115c-129.794 4.452-231.563 111.3-231.563 241.893z" />
<glyph unicode="&#xe95f;" glyph-name="twitter" d="M1023.978 765.561c-37.631-16.704-78.142-27.967-120.637-33.088 43.391 25.984 76.671 67.198 92.414 116.222-40.638-24.064-85.63-41.535-133.437-50.943-38.335 40.83-92.99 66.303-153.34 66.303-116.030 0-210.107-94.013-210.107-210.043 0-16.447 1.855-32.512 5.44-47.871-174.588 8.767-329.464 92.35-433.014 219.45-18.048-30.976-28.415-67.071-28.415-105.597 0-72.894 37.055-137.149 93.437-174.843-34.432 1.087-66.814 10.56-95.165 26.303v-2.688c0-101.757 72.447-186.684 168.444-205.946-17.536-4.864-36.095-7.423-55.295-7.423-13.567 0-26.687 1.344-39.486 3.775 26.687-83.453 104.318-144.188 196.155-145.852-71.871-56.382-162.363-89.918-260.857-89.918-16.896 0-33.599 0.96-50.111 2.88 92.99-59.583 203.387-94.334 322.040-94.334 386.422 0 597.745 320.12 597.745 597.681 0 9.151-0.192 18.175-0.64 27.199 41.087 29.632 76.734 66.622 104.829 108.734z" />
<glyph unicode="&#xe960;" glyph-name="unlock" d="M512 217.597c-41.221 0-74.679 34.381-74.679 76.815 0 42.4 33.457 76.781 74.679 76.781 41.253 0 74.679-34.381 74.679-76.781 0-42.433-33.425-76.815-74.679-76.815v0zM760.897 703.993c0 141.191-111.665 256.016-248.897 256.016s-248.865-114.827-248.865-256.016v-153.597h-124.464c-13.665 0-24.893-11.516-24.893-25.572v-179.235c0-226.221 178.324-409.58 398.223-409.58 219.931 0 398.223 183.359 398.223 409.58v179.235c0 14.056-11.228 25.572-24.893 25.572h-522.655v153.597c0 84.733 66.98 153.597 149.325 153.597s149.325-68.863 149.325-153.597h99.572z" />
<glyph unicode="&#xe961;" glyph-name="user" d="M989.66 86.293c-44.798 61.221-272.31 35.817-307.027 105.763-68.884 138.72-40.766 112.949 4.105 147.299 42.122 32.26 40.142 117.275 65.914 147.446 26.139 30.648 38.2 118.447 28.338 151.513-13.015 43.844-33.031 20.016-36.037 53.084-6.562 71.377 11.474 130.069-28.704 164.785-38.823 33.543-87.398 102.793-166.51 103.793-27.531 0.321-58.803-7.891-94.656-28.458-170.652 18.22-169.551-168.744-176.042-240.12-3.043-33.067-23.060-9.238-36.073-53.084-9.825-33.067 2.236-120.867 28.374-151.513 25.772-30.171 23.756-115.184 65.878-147.446 44.872-34.35 73.027-8.578 4.105-147.335-34.717-69.946-262.191-44.504-307.027-105.727-34.278-46.778-34.278-150.267-34.278-150.267h1023.949c0 0 0 103.49-34.314 150.267z" />
<glyph unicode="&#xe962;" glyph-name="video-camera" d="M768.006 503.728v119.423c0 13.739-11.549 25.026-25.604 25.026h-132.407l-153.59 150.124h-353.967v-100.105h311.569l51.207-50.020h-439.588c-14.089 0-25.604-11.287-25.604-25.026v-500.425c0-13.77 11.516-25.026 25.604-25.026h716.776c14.056 0 25.604 11.256 25.604 25.026v119.423l255.973-144.449v550.477l-255.973-144.449z" />
<glyph unicode="&#xe963;" glyph-name="vimeo" d="M0.022 651.592l41.535-54.527c0 0 85.822 67.582 114.429 33.856 28.543-33.856 137.661-441.973 174.14-517.235 31.744-66.111 119.485-153.404 215.675-91.006 96.19 62.334 415.797 335.288 473.076 657.583 57.15 322.232-384.758 254.778-431.478-25.984 116.99 70.27 179.323-28.543 119.548-140.348-59.775-111.677-114.302-184.572-142.909-184.572-28.543 0-50.559 74.751-83.198 205.435-33.856 135.037-33.664 378.422-174.204 350.84-132.477-26.047-306.616-234.042-306.616-234.042z" />
<glyph unicode="&#xe964;" glyph-name="volume-high" d="M512.151 959.976v-1023.945l-320.064 255.986h-64.021c-70.415 0-128.043 57.614-128.043 128.014v0 255.945c0 70.441 57.627 128.014 128.043 128.014v0h64.021l320.064 255.986zM874.229 810.042c199.653-199.608 199.653-524.428 0-724.078v0l-90.504 90.525c149.741 149.707 149.741 393.321 0 543.068v0zM674.506 674.296c124.742-124.796 124.742-327.787-0.042-452.585v0l-90.546 90.525c74.87 74.854 74.87 196.681 0 271.576v0z" />
<glyph unicode="&#xe965;" glyph-name="volume-low" d="M640.091 959.996v-1023.975l-320.060 255.994h-64.020c-70.414 0-127.999 57.617-127.999 128.017v0 255.952c0 70.443 57.585 128.017 127.999 128.017v0h64.020l320.060 255.994zM802.439 674.308c124.741-124.8 124.741-327.797-0.040-452.597v0l-90.503 90.527c74.829 74.856 74.829 196.687-0.040 271.583v0z" />
<glyph unicode="&#xe966;" glyph-name="volume-off" d="M455.665 899.753v-903.508l-283.58 225.877h-56.929c-62.655 0-115.142 50.838-115.142 112.957v0 225.84c0 62.156 52.488 112.957 115.142 112.957v0h56.929l283.58 225.877zM943.459 671.448l80.529-79.842-144.837-143.597 144.837-143.597-80.529-79.842-144.837 143.597-144.837-143.597-80.566 79.842 144.873 143.597-144.873 143.597 80.566 79.842 144.837-143.597 144.837 143.597z" />
<glyph unicode="&#xe967;" glyph-name="close-circle" d="M149.8 810.18c199.725 199.725 524.69 199.725 724.39 0.025s199.725-524.69 0-724.415c-199.7-199.7-524.69-199.673-724.39 0.025s-199.7 524.664 0 724.364zM230.277 729.703c-155.325-155.325-155.325-408.087 0-563.41s408.087-155.325 563.41 0c155.35 155.35 155.325 408.087 0 563.41s-408.060 155.35-563.41 0zM431.498 608.975l80.502-80.502 80.502 80.502 80.477-80.477-80.502-80.502 80.502-80.502-80.477-80.477-80.502 80.502-80.502-80.502-80.477 80.477 80.502 80.502-80.502 80.502 80.477 80.477z" />
<glyph unicode="&#xe968;" glyph-name="close" d="M1023.963 894.339l-65.606 65.606-446.36-446.339-446.369 446.339-65.594-65.606 446.369-446.339-446.369-446.339 65.594-65.606 446.369 446.339 446.36-446.339 65.606 65.606-446.339 446.339z" />
<glyph unicode="&#xe969;" glyph-name="youtube" d="M1013.792 652.703c0 0-10.001 70.601-40.8 101.6-39.002 40.8-82.601 41-102.601 43.4-143.2 10.4-358.199 10.4-358.199 10.4h-0.401c0 0-214.999 0-358.199-10.4-20-2.4-63.6-2.6-102.6-43.4-30.8-30.999-40.6-101.6-40.6-101.6s-10.4-82.999-10.4-165.801v-77.6c0-82.799 10.2-165.798 10.2-165.798s10-70.601 40.6-101.6c39-40.8 90.2-39.401 113-43.802 82-7.799 348.2-10.199 348.2-10.199s215.2 0.401 358.4 10.601c20 2.4 63.599 2.601 102.601 43.401 30.799 30.999 40.8 101.6 40.8 101.6s10.199 82.799 10.199 165.798v77.6c0 82.801-10.199 165.801-10.199 165.801zM406.19 315.103v287.799l276.599-144.399-276.599-143.401z" />
<glyph unicode="&#xe96a;" glyph-name="youtube-logo" d="M836.911 471.778c103.293 0 187.068-83.837 187.068-187.131v0-150.397c0-103.229-83.774-187.068-187.068-187.068v0h-649.904c-103.293 0-187.003 83.837-187.003 187.068v0 150.397c0 103.293 83.71 187.131 187.003 187.131v0zM788.080 320.102c-23.231 0-42.047-7.104-56.703-21.184-14.719-14.143-22.015-32.575-22.015-54.975v0-116.414c0-25.024 6.784-44.607 20.032-58.751 13.312-14.335 31.615-21.376 54.783-21.376 25.792 0 45.246 6.655 58.11 19.967 13.12 13.504 19.584 33.599 19.584 60.159v0 13.312h-53.31v-11.839c0-15.232-1.792-25.024-5.119-29.567-3.456-4.48-9.472-6.72-18.048-6.72-8.256 0-14.143 2.623-17.599 7.872-3.328 5.311-5.056 14.784-5.056 28.415v0 48.831h99.134v66.111c0 24.575-6.4 43.391-19.135 56.511-12.672 13.056-30.911 19.648-54.654 19.648zM398.138 313.639h-51.839v-216.698c0-15.487 3.072-26.944 9.088-34.687 6.144-7.807 15.040-11.584 27.136-11.584 9.664 0 19.711 2.688 30.016 8.32 10.432 5.44 20.351 13.44 29.887 23.935v0-28.48h51.839v259.193h-51.839v-196.86c-4.864-5.632-10.176-10.24-16.063-13.951-5.824-3.648-10.687-5.376-14.4-5.376-4.8 0-8.383 1.279-10.624 4.159-2.112 2.688-3.199 7.104-3.199 13.248v0 198.779zM585.59 405.796h-52.415v-351.351h52.415v19.903c6.72-7.999 14.208-13.824 22.144-17.599 7.872-3.775 16.896-5.568 27.071-5.568 15.295 0 27.136 4.8 35.2 14.592 8.191 9.856 12.16 23.935 12.16 42.174v0 143.869c0 21.184-4.224 37.375-12.928 48.447-8.64 11.071-21.119 16.512-37.567 16.512-8.064 0-16-1.984-23.935-6.144-7.744-4.096-15.168-10.176-22.144-17.983v0 113.15zM323.579 405.796h-179.196v-51.071h60.351v-300.28h58.431v300.28h60.414v51.071zM607.246 275.642c6.912 0 12.352-2.239 16.128-6.72 3.712-4.543 5.44-11.136 5.44-19.967v0-133.821c0-8.32-1.536-14.143-4.416-17.856-3.007-3.712-7.68-5.568-14.016-5.568-4.416 0-8.512 1.024-12.48 2.815-4.032 1.792-8.128 5.056-12.352 9.151v0 161.532c3.583 3.583 7.039 6.271 10.687 7.936s7.296 2.496 11.008 2.496zM785.872 274.766c7.872 0 13.759-2.368 17.28-7.168 3.52-4.608 5.376-12.415 5.376-23.296v0-26.176h-45.759v26.176c0 10.879 1.728 18.688 5.376 23.296 3.583 4.8 9.472 7.168 17.728 7.168zM505.822 854.463c24.127 0 43.839-6.912 59.391-20.735 15.295-13.696 22.975-31.679 22.975-53.375v0-147.452c0-24.448-7.488-43.518-22.591-57.534-15.168-13.888-35.968-20.8-62.463-20.8-25.535 0-45.951 7.168-61.246 21.568-15.232 14.4-22.912 33.599-22.912 57.855v0 148.028c0 22.144 7.872 39.743 23.488 52.799 15.679 13.12 36.863 19.648 63.358 19.648zM693.72 847.225v-218.874c0-6.72 1.408-11.584 3.775-14.592 2.368-3.072 6.463-4.543 11.904-4.543 4.224 0 9.727 1.984 16.255 5.952 6.528 4.096 12.544 9.151 17.983 15.36v0 216.698h58.367v-285.497h-58.367v31.679c-10.687-11.647-21.887-20.608-33.599-26.623-11.584-6.016-22.847-9.216-33.791-9.216-13.567 0-23.615 4.351-30.527 12.928-6.784 8.383-10.24 21.119-10.24 38.143v0 238.585h58.239zM260.099 948.822l42.623-154.748h4.096l40.703 154.748h66.687l-76.479-226.49v-160.572h-65.598v153.34l-78.207 233.723h66.174zM502.942 804.992c-7.039 0-12.864-1.855-17.344-5.695-4.416-3.904-6.655-8.896-6.655-15.168v0-155.516c0-7.872 2.112-13.824 6.271-18.112 4.096-4.416 10.048-6.463 17.728-6.463 7.936 0 14.208 2.176 18.816 6.528 4.672 4.351 7.039 10.432 7.039 18.048v0 155.516c0 6.271-2.368 11.263-7.104 15.168-4.735 3.84-11.008 5.695-18.751 5.695z" />
<glyph unicode="&#xe96b;" glyph-name="local-mall" d="M148.797-63.996c-25.459 0-47.141 8.951-65.053 26.853-17.901 17.91-26.853 39.595-26.853 65.053v612.629c0 25.459 8.951 47.141 26.853 65.053 17.91 17.901 39.595 26.853 65.053 26.853h135.649c0 63.383 22.083 117.152 66.246 161.306 44.156 44.165 97.925 66.246 161.307 66.246s117.152-22.083 161.307-66.246c44.163-44.154 66.246-97.924 66.246-161.306h135.649c25.459 0 47.141-8.951 65.053-26.853 17.901-17.91 26.853-39.595 26.853-65.053v-612.629c0-25.459-8.951-47.141-26.853-65.053-17.91-17.901-39.595-26.853-65.053-26.853h-726.407zM148.797-7.107h726.407c8.761 0 16.787 3.645 24.077 10.937 7.292 7.289 10.937 15.316 10.937 24.077v612.629c0 8.761-3.645 16.787-10.937 24.077-7.289 7.292-15.316 10.937-24.077 10.937h-726.407c-8.761 0-16.787-3.645-24.077-10.937-7.292-7.289-10.937-15.316-10.937-24.077v-612.629c0-8.761 3.645-16.787 10.937-24.077 7.289-7.292 15.316-10.937 24.077-10.937zM341.335 732.441h341.33c0 47.408-16.59 87.704-49.778 120.887-33.182 33.187-73.479 49.778-120.887 49.778s-87.704-16.591-120.887-49.778c-33.188-33.182-49.778-73.479-49.778-120.887zM511.673 391.111c58.489 0 110.529 20.313 156.114 60.941 45.586 40.619 68.267 87.295 68.038 140.031 0 7.368-2.66 13.638-7.978 18.815-5.329 5.176-12.037 7.765-20.126 7.765-6.713 0-12.733-2.627-18.059-7.878-5.32-5.254-8.894-11.672-10.726-19.259-6.047-41.129-24.973-75.333-56.774-102.611-31.8-27.278-68.63-40.917-110.489-40.917-41.862 0-78.748 13.638-110.664 40.917-31.902 27.278-50.776 61.483-56.618 102.611-1.819 7.805-5.278 14.279-10.381 19.429-5.109 5.139-11.021 7.708-17.734 7.708-8.087 0-14.849-2.589-20.283-7.765-5.441-5.179-8.162-11.448-8.162-18.815 0-52.737 22.685-99.413 68.051-140.031 45.369-40.629 97.299-60.941 155.79-60.941z" />
<glyph unicode="&#xe96c;" glyph-name="storefront" d="M144.219-6.465c-24.614 0-45.162 8.243-61.647 24.728-16.486 16.487-24.728 37.035-24.728 61.649v429.162c-22.554 16.653-39.057 38.486-49.51 65.496s-10.675 55.833-0.668 86.468l52.036 171.508c7.129 21.796 18.624 38.901 34.486 51.314 15.871 12.405 35.493 18.606 58.867 18.606h716.45c23.373 0 42.942-5.809 58.706-17.43 15.772-11.62 27.326-28.431 34.66-50.432l54.080-173.566c10.006-30.635 9.786-59.7-0.668-87.191-10.454-27.482-26.957-49.759-49.51-66.833v-427.102c0-24.614-8.243-45.161-24.728-61.649-16.487-16.485-37.030-24.728-61.633-24.728h-736.193zM629.935 528.2c34.342 0 59.979 9.614 76.912 28.846 16.931 19.222 24.060 39.079 21.387 59.573l-35.58 232.38h-153.61v-224.559c0-26.253 8.977-48.854 26.933-67.81 17.965-18.953 39.285-28.43 63.961-28.43zM389.336 528.2c28.72 0 51.943 9.476 69.666 28.43 17.715 18.956 26.574 41.556 26.574 67.81v224.559h-153.61l-35.58-236.481c-2.193-16.594 5.056-34.794 21.748-54.605 16.689-19.809 40.423-29.713 71.204-29.713zM151.411 528.2c23.577 0 43.61 8.020 60.096 24.060s26.75 36.054 30.797 60.042l33.522 236.697h-122.771c-11.655 0-20.911-2.571-27.762-7.713-6.853-5.14-11.996-12.853-15.427-23.138l-49.348-168.819c-8.778-28.106-5.026-55.32 11.254-81.645 16.281-26.322 42.828-39.485 79.638-39.485zM873.208 528.2c32.008 0 57.58 12.476 76.711 37.427 19.121 24.951 23.851 52.852 14.182 83.702l-52.022 170.879c-3.431 10.282-8.574 17.651-15.427 22.109-6.851 4.454-16.106 6.682-27.762 6.682h-120.098l33.522-236.697c4.044-23.988 14.312-44.002 30.797-60.042s36.518-24.060 60.096-24.060zM144.219 47.001h736.193c9.589 0 17.471 3.081 23.644 9.248 6.167 6.175 9.251 14.063 9.251 23.66v401.611c-7.2-2.466-14.039-4.218-20.517-5.252-6.471-1.024-12.999-1.538-19.583-1.538-24.060 0-45.223 4.695-63.492 14.089-18.267 9.391-35.625 24.367-52.076 44.923-13.98-17.402-31.22-31.587-51.715-42.56-20.496-10.969-45.416-16.453-74.757-16.453-21.316 0-41.59 4.969-60.819 14.905-19.222 9.945-38.567 24.646-58.038 44.109-17.893-19.462-37.721-34.164-59.481-44.109-21.762-9.935-42.517-14.905-62.264-14.905-22.411 0-44.256 4.287-65.536 12.858-21.289 8.564-39.952 23.948-55.992 46.155-26.253-26.25-49.199-42.647-68.839-49.189-19.64-6.549-35.903-9.823-48.788-9.823-6.578 0-13.208 0.514-19.89 1.538-6.684 1.034-13.421 2.784-20.21 5.252v-401.611c0-9.598 3.081-17.485 9.248-23.66 6.175-6.167 14.063-9.248 23.66-9.248z" />
<glyph unicode="&#xe96d;" glyph-name="liquor" d="M26.947-64v80.842h98.977v180.238c-30.055 8.702-54.065 25.028-72.030 48.975-17.965 23.939-26.947 51.523-26.947 82.756v402.136h278.799v-402.136c0-30.54-9.069-57.956-27.203-82.243-18.137-24.287-42.062-40.785-71.776-49.486v-180.238h98.98v-80.842h-278.799zM107.789 476.497h117.115v173.609h-117.115v-173.609zM166.345 270.255c16.313 0 30.15 5.682 41.514 17.045 11.364 11.361 17.045 25.199 17.045 41.512v66.843h-117.115v-66.843c0-16.313 5.682-30.15 17.045-41.512 11.371-11.364 25.209-17.045 41.512-17.045zM536.873-64c-22.231 0-41.263 7.919-57.087 23.755-15.837 15.826-23.755 34.857-23.755 57.087v518.318c0 17.452 5.182 33.065 15.548 46.836 10.367 13.761 23.565 23.646 39.6 29.653l51.2 19.376c18.099 6.566 32.023 15.5 41.768 26.799 9.736 11.302 14.607 28.075 14.607 50.325v204.071c0 13.608 4.572 24.971 13.715 34.089 9.135 9.127 20.459 13.689 33.968 13.689h120.212c13.509 0 24.837-4.567 33.98-13.703 9.135-9.144 13.704-20.471 13.704-33.98v-204.165c0-22.251 4.957-39.024 14.874-50.325s23.924-20.233 42.024-26.799l51.727-19.376c16.024-6.036 29.044-15.929 39.060-29.683 10.025-13.761 15.035-29.362 15.035-46.807v-518.318c0-22.231-7.919-41.263-23.755-57.087-15.826-15.834-34.857-23.755-57.087-23.755h-379.337zM699.595 822.676h53.895v56.483h-53.895v-56.483zM536.873 431.939h379.337v103.222l-51.712 19.388c-34.133 12.578-61.17 31.217-81.109 55.917-19.933 24.704-29.899 56.712-29.899 96.028v35.34h-53.895v-35.34c0-39.317-9.967-71.325-29.899-96.028-19.931-24.701-46.966-43.339-81.098-55.917l-51.725-19.388v-103.222zM536.873 16.842h379.337v126.451h-379.337v-126.451zM536.873 224.135h379.337v126.962h-379.337v-126.962z" />
<glyph unicode="&#xe96e;" glyph-name="location-city" d="M77.938-63.985v734.245h284.493v143.301l149.568 146.427 149.568-146.427v-360.856h284.491v-516.691h-868.121zM159.521 17.598h135.972v135.972h-135.972v-135.972zM159.521 235.155h135.972v135.969h-135.972v-135.969zM159.521 452.706h135.972v135.972h-135.972v-135.972zM444.014 17.598h135.972v135.972h-135.972v-135.972zM444.014 235.155h135.972v135.969h-135.972v-135.969zM444.014 452.706h135.972v135.972h-135.972v-135.972zM444.014 670.26h135.972v135.972h-135.972v-135.972zM728.505 17.598h135.972v135.972h-135.972v-135.972zM728.505 235.155h135.972v135.969h-135.972v-135.969z" />
<glyph unicode="&#xe96f;" glyph-name="local-florist" d="M512 575.568c16.043 0 29.622 5.559 40.734 16.68 11.121 11.112 16.68 24.69 16.68 40.734 0 16.046-5.559 29.624-16.68 40.735-11.112 11.118-24.69 16.68-40.734 16.68-16.046 0-29.624-5.562-40.735-16.68-11.118-11.112-16.68-24.69-16.68-40.735 0-16.043 5.562-29.622 16.68-40.734 11.112-11.121 24.69-16.68 40.735-16.68zM512.115 305.966c-30.34 0-57.764 8.638-82.273 25.912s-41.825 40.387-51.95 69.345c-4.328-0.997-8.638-1.71-12.93-2.144-4.292-0.432-8.767-0.649-13.422-0.649-39.238 0-72.811 13.847-100.718 41.539-27.918 27.693-41.878 61.21-41.878 100.55 0 16.772 3.111 32.947 9.335 48.524 6.231 15.577 14.9 30.224 26.013 43.938-10.583 13.718-18.904 28.364-24.962 43.941s-9.086 31.752-9.086 48.523c0 39.342 13.752 72.857 41.253 100.55 27.511 27.693 60.859 41.539 100.044 41.539 4.655 0 9.13-0.217 13.422-0.649s8.772-0.982 13.435-1.649c10.117 28.628 27.307 51.577 51.572 68.851s51.608 25.91 82.028 25.91c30.418 0 57.759-8.637 82.026-25.91s41.456-40.223 51.572-68.851c4.663 0.667 9.143 1.216 13.435 1.649s8.767 0.649 13.422 0.649c39.185 0 72.533-13.847 100.044-41.539 27.503-27.694 41.253-61.208 41.253-100.55 0-16.893-2.894-33.178-8.684-48.859-5.796-15.69-14.253-30.224-25.364-43.605 10.583-13.715 18.904-28.361 24.962-43.938s9.086-31.752 9.086-48.524c0-39.339-13.749-72.857-41.253-100.55-27.511-27.693-60.859-41.539-100.044-41.539-4.655 0-9.13 0.217-13.422 0.649-4.292 0.434-8.935 1.146-13.929 2.144-9.787-28.958-26.813-52.071-51.080-69.345s-51.569-25.912-81.91-25.912zM512-63.989c0 56.379 11.666 110.332 34.996 161.858 23.332 51.525 54.7 96.993 94.111 136.402 39.409 39.402 84.878 70.774 136.402 94.114 51.527 23.332 105.479 34.996 161.858 34.996 0-56.389-11.666-110.343-34.996-161.858-23.332-51.527-54.7-96.993-94.111-136.404-39.409-39.409-84.878-70.78-136.402-94.111-51.527-23.332-105.479-34.996-161.858-34.996zM605.255 29.266c58.647 18.173 108.908 48.197 150.786 90.075 41.867 41.867 71.888 92.124 90.061 150.773-58.648-18.173-108.906-48.194-150.775-90.061-41.876-41.876-71.899-92.139-90.072-150.786zM512-63.989c0 56.379-11.666 110.332-34.996 161.858-23.332 51.525-54.702 96.993-94.114 136.402-39.409 39.402-84.878 70.774-136.402 94.114-51.527 23.332-105.479 34.996-161.86 34.996 0-56.389 11.666-110.343 34.996-161.858 23.332-51.527 54.7-96.993 94.111-136.404 39.409-39.409 84.878-70.78 136.402-94.111 51.527-23.332 105.479-34.996 161.861-34.996zM418.745 29.266c-58.648 18.173-108.911 48.197-150.786 90.075-41.87 41.867-71.89 92.124-90.064 150.773 58.648-18.173 108.906-48.194 150.775-90.061 41.876-41.876 71.902-92.139 90.075-150.786zM672.456 476.315c17.68 0 32.804 6.29 45.37 18.875 12.565 12.575 18.847 27.718 18.847 45.432 0 13.043-3.664 24.774-10.994 35.193-7.322 10.42-17.006 17.56-29.051 21.419l-50.925 17.084c-1.463-8.723-3.661-17.248-6.593-25.574-2.927-8.314-6.552-16.205-10.878-23.664-4.328-7.451-9.187-14.305-14.578-20.562s-11.548-12.081-18.471-17.472l39.033-35.361c4.994-4.786 10.667-8.546 17.017-11.28 6.344-2.726 13.419-4.089 21.224-4.089zM645.702 651.649l50.925 17.084c12.047 3.859 21.6 11.123 28.662 21.795 7.052 10.67 10.579 22.308 10.579 34.918 0 17.68-6.104 32.804-18.316 45.37-12.21 12.557-27.243 18.834-45.096 18.834-7.987 0-14.975-1.362-20.963-4.087-5.989-2.735-11.749-6.496-17.278-11.282l-39.838-35.359c6.923-5.391 13.214-11.216 18.875-17.472 5.659-6.259 10.652-13.113 14.98-20.562 4.328-7.461 7.953-15.348 10.878-23.666 2.933-8.324 5.129-16.849 6.593-25.572zM462.269 758.39c8.1 3.134 16.2 5.566 24.3 7.297s16.604 2.596 25.508 2.596c8.914 0 17.421-0.865 25.521-2.596s16.144-4.163 24.132-7.297l13.98 61.025c3.729 16.642-1.182 31.249-14.733 43.824-13.544 12.583-29.869 18.874-48.977 18.874s-35.435-6.292-48.979-18.874c-13.551-12.575-18.461-27.182-14.733-43.824l13.98-61.025zM512 383.852c19.108 0 35.433 6.293 48.977 18.875 13.551 12.575 18.461 27.182 14.733 43.824l-13.98 61.023c-7.987-3.461-16.032-5.975-24.132-7.542s-16.607-2.349-25.521-2.349c-8.903 0-17.433 0.783-25.585 2.349-8.16 1.567-16.234 4.080-24.222 7.542l-13.98-61.023c-3.729-16.641 1.182-31.249 14.733-43.824 13.544-12.582 29.872-18.875 48.979-18.875zM378.296 651.649c1.463 8.723 3.661 17.248 6.596 25.572 2.924 8.317 6.55 16.205 10.876 23.666 4.328 7.449 9.187 14.303 14.578 20.562 5.391 6.256 11.55 12.081 18.473 17.472l-39.035 35.359c-4.994 4.786-10.667 8.548-17.017 11.282-6.344 2.726-13.419 4.087-21.224 4.087-17.68 0-32.802-6.277-45.367-18.834-12.565-12.565-18.85-27.691-18.85-45.37 0-12.609 3.664-24.247 10.994-34.918 7.322-10.67 17.006-17.936 29.051-21.795l50.925-17.084zM351.542 477.106c7.918 0 14.97 1.235 21.159 3.7 6.197 2.467 11.89 6.362 17.081 11.684l39.838 34.556c-6.923 5.391-13.214 11.216-18.873 17.472-5.661 6.256-10.654 13.11-14.982 20.562-4.328 7.459-7.953 15.348-10.876 23.664-2.935 8.326-5.132 16.851-6.596 25.574l-50.925-17.084c-12.047-3.859-21.681-11.125-28.909-21.795-7.225-10.67-10.839-22.311-10.839-34.921 0.538-17.774 6.882-32.784 19.032-45.030 12.15-12.254 27.111-18.381 44.888-18.381z" />
<glyph unicode="&#xe970;" glyph-name="apartment" d="M113.798-63.973c-31.288 0-58.072 11.139-80.352 33.421-22.28 22.279-33.421 49.064-33.421 80.35v568.86c0 31.288 11.141 58.072 33.421 80.35 22.28 22.282 49.064 33.421 80.352 33.421h113.771v113.771c0 31.288 11.139 58.072 33.421 80.352 22.279 22.28 49.064 33.421 80.35 33.421h341.316c31.288 0 58.072-11.141 80.35-33.421 22.282-22.28 33.421-49.064 33.421-80.352v-341.316h113.771c31.288 0 58.072-11.139 80.35-33.421 22.282-22.279 33.421-49.064 33.421-80.35v-341.316c0-31.288-11.139-58.072-33.421-80.35-22.279-22.282-49.064-33.421-80.35-33.421h-341.316v227.544h-113.771v-227.544h-341.316zM113.798 49.798h113.771v113.771h-113.771v-113.771zM113.798 277.342h113.771v113.771h-113.771v-113.771zM113.798 504.886h113.771v113.771h-113.771v-113.771zM341.342 277.342h113.771v113.771h-113.771v-113.771zM341.342 504.886h113.771v113.771h-113.771v-113.771zM341.342 732.429h113.771v113.771h-113.771v-113.771zM568.886 277.342h113.771v113.771h-113.771v-113.771zM568.886 504.886h113.771v113.771h-113.771v-113.771zM568.886 732.429h113.771v113.771h-113.771v-113.771zM796.429 49.798h113.771v113.771h-113.771v-113.771zM796.429 277.342h113.771v113.771h-113.771v-113.771z" />
<glyph unicode="&#xe971;" glyph-name="bathroom" d="M358.41 140.817c14.506 0 26.666 4.905 36.478 14.719 9.814 9.812 14.719 21.972 14.719 36.478s-4.905 26.666-14.719 36.478c-9.812 9.814-21.972 14.719-36.478 14.719s-26.666-4.905-36.478-14.719c-9.814-9.812-14.719-21.972-14.719-36.478s4.905-26.666 14.719-36.478c9.812-9.814 21.972-14.719 36.478-14.719zM512 140.817c14.506 0 26.666 4.905 36.478 14.719 9.814 9.812 14.719 21.972 14.719 36.478s-4.905 26.666-14.719 36.478c-9.812 9.814-21.972 14.719-36.478 14.719s-26.666-4.905-36.478-14.719c-9.814-9.812-14.719-21.972-14.719-36.478s4.905-26.666 14.719-36.478c9.812-9.814 21.972-14.719 36.478-14.719zM665.59 140.817c14.506 0 26.666 4.905 36.478 14.719 9.814 9.812 14.719 21.972 14.719 36.478s-4.905 26.666-14.719 36.478c-9.812 9.814-21.972 14.719-36.478 14.719s-26.666-4.905-36.478-14.719c-9.814-9.812-14.719-21.972-14.719-36.478s4.905-26.666 14.719-36.478c9.812-9.814 21.972-14.719 36.478-14.719zM358.41 294.407c14.506 0 26.666 4.905 36.478 14.719 9.814 9.812 14.719 21.972 14.719 36.478s-4.905 26.666-14.719 36.478c-9.812 9.814-21.972 14.719-36.478 14.719s-26.666-4.905-36.478-14.719c-9.814-9.812-14.719-21.972-14.719-36.478s4.905-26.666 14.719-36.478c9.812-9.814 21.972-14.719 36.478-14.719zM512 294.407c14.506 0 26.666 4.905 36.478 14.719 9.814 9.812 14.719 21.972 14.719 36.478s-4.905 26.666-14.719 36.478c-9.812 9.814-21.972 14.719-36.478 14.719s-26.666-4.905-36.478-14.719c-9.814-9.812-14.719-21.972-14.719-36.478s4.905-26.666 14.719-36.478c9.812-9.814 21.972-14.719 36.478-14.719zM665.59 294.407c14.506 0 26.666 4.905 36.478 14.719 9.814 9.812 14.719 21.972 14.719 36.478s-4.905 26.666-14.719 36.478c-9.812 9.814-21.972 14.719-36.478 14.719s-26.666-4.905-36.478-14.719c-9.814-9.812-14.719-21.972-14.719-36.478s4.905-26.666 14.719-36.478c9.812-9.814 21.972-14.719 36.478-14.719zM256.016 447.997h511.968v51.197c0 70.822-24.958 131.191-74.875 181.109-49.918 49.916-110.288 74.875-181.109 74.875s-131.191-24.958-181.109-74.875c-49.916-49.918-74.875-110.288-74.875-181.109v-51.197zM335.371 524.793c6.826 43.518 26.666 79.994 59.516 109.433 32.853 29.437 71.89 44.157 117.113 44.157s84.261-14.719 117.113-44.157c32.85-29.439 52.69-65.917 59.516-109.433h-353.258zM102.426-63.97c-28.159 0-52.264 10.025-72.316 30.079-20.052 20.051-30.079 44.157-30.079 72.315v819.149c0 28.159 10.027 52.264 30.079 72.316s44.157 30.079 72.316 30.079h819.149c28.159 0 52.264-10.025 72.315-30.079 20.053-20.052 30.079-44.157 30.079-72.316v-819.149c0-28.159-10.025-52.264-30.079-72.315-20.051-20.053-44.157-30.079-72.315-30.079h-819.149zM102.426 38.423h819.149v819.149h-819.149v-819.149z" />
<glyph unicode="&#xe972;" glyph-name="floor" d="M0.018-63.968v107.784h188.622v242.514h242.514v242.514h242.514v242.514h242.514v188.622h107.784v-296.407h-242.514v-242.514h-242.514v-242.514h-242.514v-242.514h-296.407z" />
</font>
</defs>
</svg>
